<?xml version="1.0" standalone="no"?>
<!DOCTYPE svg PUBLIC "-//W3C//DTD SVG 1.1//EN" "http://www.w3.org/Graphics/SVG/1.1/DTD/svg11.dtd" >
<svg>
<metadata>
Created by FontForge 20090622 at Tue Jul 31 13:22:22 2018
 By deploy user
Copyright 1993 Greg Thompson. Agenda is a Trademark of Greg Thompson. Produced by The Font Bureau, Inc.
</metadata>
<defs>
<font id="Agenda-Light" horiz-adv-x="360" >
  <font-face 
    font-family="Agenda"
    font-weight="400"
    font-stretch="normal"
    units-per-em="1000"
    panose-1="2 0 6 3 4 0 0 2 0 4"
    ascent="800"
    descent="-200"
    x-height="453"
    cap-height="638"
    bbox="-78 -233 1003 907"
    underline-thickness="18"
    underline-position="-150"
    unicode-range="U+0005-U+2122"
  />
<missing-glyph horiz-adv-x="500" 
 />
    <glyph glyph-name=".notdef" horiz-adv-x="500" 
 />
    <glyph glyph-name="NUL" horiz-adv-x="0" 
 />
    <glyph glyph-name="nonmarkingreturn" horiz-adv-x="238" 
 />
    <glyph glyph-name="space" unicode=" " horiz-adv-x="238" 
 />
    <glyph glyph-name="space" unicode="&#xa0;" horiz-adv-x="238" 
 />
    <glyph glyph-name="Lslash" horiz-adv-x="450" 
d="M75 0v282l-49 -28l-26 45l75 43v296h67v-257l101 58v-60l-101 -58v-263h297v-58h-364z" />
    <glyph glyph-name="lslash" horiz-adv-x="253" 
d="M146 324v-218q0 -32 17.5 -52.5t40.5 -25.5l-43 -43q-13 4 -27 12t-25 21.5t-18.5 33.5t-7.5 47v188l-58 -33l-26 45l84 48v365h63v-329l82 48v-60z" />
    <glyph glyph-name="Scaron" unicode="&#x160;" horiz-adv-x="462" 
d="M421 171q0 -83 -55.5 -132.5t-151.5 -49.5q-56 0 -99.5 15t-69.5 34l-19 79q42 -32 88.5 -50.5t102.5 -18.5q60 0 98 32t38 85q0 50 -31 82.5t-98 55.5q-86 30 -127 76t-41 109q0 30 11.5 58.5t34.5 51.5t59 37t84 14q44 0 79.5 -11.5t55.5 -25.5l-14 -56
q-19 14 -52.5 25.5t-70.5 11.5q-30 0 -53 -9t-38 -23t-23 -32.5t-8 -36.5q0 -38 28 -68t89 -53q43 -16 77 -35t57.5 -42.5t36 -53.5t12.5 -69zM362 820q-39 -17 -72 -46.5t-58 -64.5q-26 35 -59 64.5t-71 46.5l34 33q29 -14 52.5 -29.5t43.5 -38.5q20 23 43 38.5t52 29.5
l35 -33v0z" />
    <glyph glyph-name="scaron" unicode="&#x161;" horiz-adv-x="372" 
d="M330 118q0 -57 -41.5 -92.5t-113.5 -35.5q-42 0 -74.5 10.5t-52.5 26.5l-17 73q28 -26 65.5 -41t79.5 -15q38 0 64.5 19t26.5 52q0 32 -23 52.5t-61 34.5q-63 23 -97.5 55t-34.5 86q0 27 10.5 49t29 37.5t44.5 24.5t56 9q37 0 67.5 -10t43.5 -19l-12 -52q-14 9 -40 18.5
t-60 9.5t-55.5 -18t-21.5 -47q0 -30 20.5 -48t58.5 -32q65 -23 101.5 -57t36.5 -90zM296 619q-33 -15 -61 -39.5t-49 -54.5q-22 30 -50 54.5t-61 39.5l29 28q25 -11 45 -24.5t37 -33.5q17 20 36.5 33.5t44.5 24.5l29 -28v0z" />
    <glyph glyph-name="Yacute" unicode="&#xdd;" horiz-adv-x="578" 
d="M321 295v-295h-66v295l-243 343h74l138 -195l33 -48l33 -49h2l32 48.5t34 48.5l139 195h69zM424 796q-37 -32 -79 -50.5t-87 -29.5l-36 35q51 14 101.5 40t87.5 64l13 -59v0z" />
    <glyph glyph-name="yacute" unicode="&#xfd;" horiz-adv-x="464" 
d="M263 39q-52 -122 -108.5 -185t-123.5 -87l-39 40q64 20 114 74.5t94 158.5l-175 413h66l97 -228l22.5 -55.5l22.5 -58.5h2l22 56.5l23 55.5l98 230h61zM356 598q-32 -26 -67.5 -42t-73.5 -26l-31 30q43 12 86 34.5t75 54.5l11 -51v0z" />
    <glyph glyph-name="Thorn" unicode="&#xde;" horiz-adv-x="452" 
d="M434 391q0 -41 -15.5 -73t-41 -54.5t-58.5 -34t-68 -11.5h-115v-218h-67v640h67v-76h111q36 0 70 -11.5t60 -34t41.5 -54.5t15.5 -73zM366 391q0 27 -10.5 48.5t-28 36t-41 22.5t-50.5 8h-100v-230h104q25 0 48 7.5t40 22.5t27.5 36.5t10.5 48.5z" />
    <glyph glyph-name="thorn" unicode="&#xfe;" horiz-adv-x="529" 
d="M492 227q0 -52 -18 -95.5t-50 -75t-75.5 -49t-94.5 -17.5q-38 0 -71.5 11t-53.5 26v-258h-63v943h63v-291q24 20 59 31t76 11q42 0 83 -16t73 -46.5t52 -74.5t20 -99zM428 227q0 40 -13.5 73t-37 57t-55 37t-68.5 13q-39 0 -71 -13t-54 -36v-264q20 -20 53.5 -34
t71.5 -14q37 0 68.5 13.5t55 37.5t37 57t13.5 73z" />
    <glyph glyph-name="Zcaron" horiz-adv-x="494" 
d="M26 0v15l220 376l57.5 98l55.5 91l-1 1h-306v57h402v-15l-222 -378l-56.5 -95.5l-55.5 -91.5l1 -1h343v-57h-438zM375 820q-39 -17 -72 -46.5t-58 -64.5q-26 35 -59 64.5t-71 46.5l34 33q29 -14 52.5 -29.5t43.5 -38.5q20 23 43 38.5t52 29.5l35 -33v0z" />
    <glyph glyph-name="zcaron" horiz-adv-x="406" 
d="M26 0v12l157 258l40 65t41 63l-1 1h-218v54h315v-12l-158 -258l-39.5 -64l-40.5 -64l1 -1h254v-54h-351zM320 619q-33 -15 -61 -39.5t-49 -54.5q-22 30 -50.5 54.5t-60.5 39.5l29 28q24 -11 44.5 -24.5t37.5 -33.5q17 20 36.5 33.5t43.5 24.5l30 -28v0z" />
    <glyph glyph-name="onehalf" unicode="&#xbd;" horiz-adv-x="784" 
d="M466 0v13q106 91 154 155.5t48 108.5q0 42 -25.5 63.5t-70.5 21.5q-26 0 -48.5 -6.5t-41.5 -17.5l-11 39q18 11 44.5 18t56.5 7q69 0 105.5 -34.5t36.5 -92.5q0 -49 -41 -110.5t-113 -124.5h173v-40h-267zM92 -14l-27 23l521 643l26 -23zM121 248v354l-80 -6l11 43
l116 10v-401h-47z" />
    <glyph glyph-name="onequarter" unicode="&#xbc;" horiz-adv-x="720" 
d="M610 116v-116h-47v116h-175l-11 39l194 242h39v-241h54v-40h-54zM92 -14l-27 22l521 644l26 -23zM121 248v354l-80 -6l11 43l116 10v-401h-47zM564 332l-20.5 -30t-22.5 -30l-91 -116h133v117q0 28 3 58z" />
    <glyph glyph-name="onesuperior" unicode="&#xb9;" horiz-adv-x="256" 
d="M121 248v354l-80 -6l11 43l116 10v-401h-47z" />
    <glyph glyph-name="threequarters" unicode="&#xbe;" horiz-adv-x="763" 
d="M663 116v-116h-47v116h-176l-10 39l194 242h39v-241h54v-40h-54zM145 -14l-28 22l522 644l26 -23zM274 373q0 -28 -10 -52t-28.5 -41.5t-46 -27.5t-61.5 -10q-21 0 -41.5 5t-36.5 15l-13 48q23 -16 47.5 -22t43.5 -6q40 0 69.5 24t29.5 67q0 33 -24.5 55t-57.5 22
q-5 0 -11.5 -0.5t-11.5 -2.5l-10 40q36 7 59 27.5t23 41.5q0 24 -17 38.5t-47 14.5q-17 0 -36 -4.5t-36 -13.5l-11 40q37 18 83 18q51 0 81 -25t30 -68q0 -24 -13.5 -44t-36.5 -31q32 -8 57.5 -37t25.5 -71zM617 332l-20.5 -30t-22.5 -30l-91 -116h133v117q0 28 3 58z" />
    <glyph glyph-name="threesuperior" unicode="&#xb3;" horiz-adv-x="317" 
d="M274 373q0 -28 -10 -52t-28.5 -41.5t-46 -27.5t-61.5 -10q-21 0 -41.5 5t-36.5 15l-13 48q23 -16 47.5 -22t43.5 -6q40 0 69.5 24t29.5 67q0 33 -24.5 55t-57.5 22q-5 0 -11.5 -0.5t-11.5 -2.5l-10 40q36 7 59 27.5t23 41.5q0 24 -17 38.5t-47 14.5q-17 0 -36 -4.5
t-36 -13.5l-11 40q37 18 83 18q51 0 81 -25t30 -68q0 -24 -13.5 -44t-36.5 -31q32 -8 57.5 -37t25.5 -71z" />
    <glyph glyph-name="twosuperior" unicode="&#xb2;" horiz-adv-x="356" 
d="M37 247v14q107 91 154.5 155t47.5 108q0 42 -25.5 63.5t-69.5 21.5q-52 0 -90 -24l-11 40q17 11 43.5 17.5t57.5 6.5q69 0 105.5 -34.5t36.5 -91.5q0 -50 -41.5 -111.5t-113.5 -124.5h174v-40h-268z" />
    <glyph glyph-name="brokenbar" unicode="&#xa6;" horiz-adv-x="215" 
d="M80 300v412h55v-412h-55zM80 -231v412h55v-412h-55z" />
    <glyph glyph-name="minus" unicode="&#xad;" horiz-adv-x="431" 
d="M55 251v47h321v-47h-321z" />
    <glyph glyph-name="multiply" unicode="&#xd7;" horiz-adv-x="476" 
d="M366 115l-126 126l-126 -127l-32 32l127 126l-126 126l31 32l126 -127l125 125l31 -31l-125 -125l126 -126z" />
    <glyph glyph-name="eth" unicode="&#xf0;" horiz-adv-x="492" 
d="M449 209q0 -55 -17 -96t-45.5 -68.5t-66.5 -41.5t-80 -14q-43 0 -80 15.5t-64 43t-42.5 65t-15.5 81.5q0 73 42 125t107 75q28 10 67.5 18.5t68.5 11.5l-65 145l-90 -37l-16 36l89 37l-48 107h53l39 -88l80 33l16 -37l-80 -33l113 -250q7 -15 13 -32t11 -34.5t8 -33.5
t3 -28zM400 209q0 16 -5.5 37.5t-13.5 44.5t-18.5 46.5l-20.5 44.5q-14 -1 -31.5 -3.5t-35.5 -6t-35 -8t-30 -9.5q-122 -48 -122 -161q0 -36 12 -65.5t32 -50.5t47.5 -33t59.5 -12q31 0 60 11.5t51.5 33.5t36 55t13.5 76z" />
    <glyph glyph-name="exclam" unicode="!" horiz-adv-x="236" 
d="M145 156l-53 14l-11 512h74zM166 45q0 -7 -5 -16.5t-12 -18t-15 -14.5t-15 -6q-6 0 -14 6t-15.5 14.5t-12.5 18t-5 16.5t5 16.5t12.5 18t15.5 14.5t14 6q7 0 15 -6t15 -14.5t12 -18t5 -16.5z" />
    <glyph glyph-name="quotedbl" unicode="&#x22;" horiz-adv-x="277" 
d="M227 507h-36l-13 205h62zM84 507h-36l-12 205h63z" />
    <glyph glyph-name="numbersign" unicode="#" horiz-adv-x="412" 
d="M319 385l-30 -132h69v-42h-79l-49 -211h-48l49 211h-107l-49 -211h-48l49 211h-59v42h69l30 132h-69v42h79l49 211h48l-49 -211h108l48 211h48l-48 -211h58v-42h-69zM164 385l-30 -132h107l30 132h-107z" />
    <glyph glyph-name="dollar" unicode="$" horiz-adv-x="450" 
d="M406 166q0 -69 -44 -118t-125 -57v-88h-42v86q-51 2 -88.5 15.5t-67.5 35.5l16 58q28 -22 65 -37.5t85 -15.5q31 0 56.5 9.5t43.5 25t28 36.5t10 45q0 46 -31.5 82t-97.5 59q-81 29 -126 75.5t-45 107.5q0 29 9.5 56.5t28.5 49.5t47.5 37t66.5 20v89h42v-88
q44 -2 75.5 -12.5t54.5 -24.5l-14 -55q-25 16 -57.5 26.5t-69.5 10.5q-31 0 -53.5 -9t-37.5 -24t-22.5 -33.5t-7.5 -36.5q0 -79 121 -124q84 -32 132 -81t48 -120z" />
    <glyph glyph-name="percent" unicode="%" horiz-adv-x="700" 
d="M309 514q0 -30 -10.5 -55t-28.5 -42.5t-42.5 -27.5t-53.5 -10t-53.5 10t-42.5 27.5t-28 42.5t-10 55t10 55t28 42.5t42.5 27.5t53.5 10t53.5 -10t42.5 -27.5t28.5 -42.5t10.5 -55zM104 -19l-33 28l525 648l32 -27zM661 125q0 -30 -10.5 -55t-28.5 -43t-42.5 -28
t-53.5 -10t-53.5 10t-42.5 28t-28 43t-10 55q0 29 10 54t28 43t42.5 28t53.5 10t53.5 -10t42.5 -28t28.5 -43t10.5 -54zM255 514q0 40 -24 62.5t-57 22.5q-34 0 -57.5 -22.5t-23.5 -62.5t23.5 -63t57.5 -23q33 0 57 23t24 63zM608 125q0 39 -24 61.5t-58 22.5
q-33 0 -57 -22.5t-24 -61.5q0 -40 24 -63.5t57 -23.5q34 0 58 23.5t24 63.5z" />
    <glyph glyph-name="ampersand" unicode="&#x26;" horiz-adv-x="588" 
d="M511 0l-72 72q-39 -38 -90 -60.5t-115 -22.5q-43 0 -78.5 14t-61 37t-39.5 53t-14 63q0 62 32 105.5t98 79.5q-44 43 -66 81.5t-22 76.5q0 35 13.5 62.5t35.5 47t49.5 30t56.5 10.5q30 0 59 -10.5t52 -30t37 -47t14 -62.5q0 -54 -37 -95t-96 -75l170 -170q48 65 72 147
l43 -43q-11 -38 -29.5 -75.5t-43.5 -70.5l118 -117h-86zM339 499q0 19 -8 36.5t-21.5 30.5t-32 21t-39.5 8q-20 0 -37 -8t-29.5 -21.5t-20 -30.5t-7.5 -36q0 -29 20 -58.5t62 -70.5q113 64 113 129zM212 300q-54 -31 -80.5 -63.5t-26.5 -77.5q0 -23 10.5 -43.5t28.5 -36.5
t42 -25t51 -9q45 0 85.5 18.5t74.5 50.5z" />
    <glyph glyph-name="quotesingle" unicode="'" horiz-adv-x="135" 
d="M84 507h-36l-12 205h63z" />
    <glyph glyph-name="parenleft" unicode="(" horiz-adv-x="244" 
d="M218 695q-51 -94 -83 -210.5t-32 -244.5q0 -132 28 -242.5t82 -221.5l-67 16q-23 46 -42.5 94t-33.5 102t-21.5 115.5t-7.5 135.5q0 144 30 257.5t83 212.5l64 -14v0z" />
    <glyph glyph-name="parenright" unicode=")" horiz-adv-x="244" 
d="M203 246q0 -144 -30 -257.5t-84 -212.5l-63 14q51 94 83 211t32 244q0 66 -7 126t-21.5 117t-35 111.5t-47.5 110.5l68 -17q23 -46 42.5 -94t33.5 -102t21.5 -116t7.5 -135z" />
    <glyph glyph-name="asterisk" unicode="*" horiz-adv-x="408" 
d="M241 485l92 -117l-40 -45l-90 133l-80 -123l-54 25l97 126l-141 38l7 58l147 -53l-5 145l59 14l-7 -159l137 52l31 -53z" />
    <glyph glyph-name="plus" unicode="+" horiz-adv-x="462" 
d="M261 250v-149h-60v149h-157v54h157v149h60v-149h157v-54h-157z" />
    <glyph glyph-name="comma" unicode="," horiz-adv-x="187" 
d="M140 45q0 -14 -7 -34.5t-18.5 -43t-27 -44t-31.5 -38.5l-28 4q23 28 37.5 58.5t17.5 52.5q-11 3 -24 17.5t-13 27.5q0 7 5 16.5t12.5 18t15.5 14.5t14 6t14 -6t15.5 -14t12.5 -18t5 -17z" />
    <glyph glyph-name="hyphen" unicode="-" horiz-adv-x="338" 
d="M44 250v54h250v-54h-250z" />
    <glyph glyph-name="period" unicode="." horiz-adv-x="187" 
d="M139 45q0 -7 -5 -16.5t-12 -18t-15.5 -14.5t-14.5 -6t-14.5 6t-15.5 14.5t-12 18t-5 16.5t5 16.5t12 18t15.5 14.5t14.5 6t14.5 -6t15.5 -14.5t12 -18t5 -16.5z" />
    <glyph glyph-name="slash" unicode="/" horiz-adv-x="621" 
d="M71 -15l-43 35l523 645l42 -34z" />
    <glyph glyph-name="zero" unicode="0" horiz-adv-x="542" 
d="M500 320q0 -83 -19 -145.5t-51 -103.5t-73 -61.5t-86 -20.5q-46 0 -87.5 20.5t-73 61.5t-50 103t-18.5 146q0 82 18.5 143.5t50 103t73 62t87.5 20.5q44 0 85.5 -21t73.5 -62t51 -102.5t19 -143.5zM436 320q0 70 -13.5 121.5t-36.5 85t-53 49.5t-62 16q-33 0 -63 -16
t-52.5 -49.5t-36 -85t-13.5 -121.5q0 -71 13.5 -123t36 -85.5t52.5 -49.5t63 -16t63 16t52.5 49.5t36 85t13.5 123.5z" />
    <glyph glyph-name="one" unicode="1" horiz-adv-x="292" 
d="M139 0v590l-129 -13l14 55l178 16v-648h-63z" />
    <glyph glyph-name="two" unicode="2" horiz-adv-x="458" 
d="M29 0v15q146 146 222.5 257.5t76.5 187.5q0 68 -38.5 100.5t-96.5 32.5q-40 0 -70.5 -11.5t-59.5 -31.5l-15 57q29 17 64.5 29.5t80.5 12.5q44 0 80.5 -12.5t63 -36.5t41 -60t14.5 -82q0 -45 -22.5 -97.5t-58.5 -106t-81 -105t-89 -94.5h283v-55h-395z" />
    <glyph glyph-name="three" unicode="3" horiz-adv-x="418" 
d="M376 190q0 -44 -14.5 -81t-43 -63.5t-70.5 -41t-96 -14.5q-31 0 -58.5 6.5t-49.5 17.5l-19 68q29 -18 61 -27t63 -9q34 0 63.5 9.5t51.5 29t35 47.5t13 66q0 27 -11.5 51.5t-31 43.5t-45 30t-53.5 11h-14.5t-14.5 -1l-15 53q30 5 54.5 16t42.5 26t28 33t10 38
q0 40 -27.5 67.5t-77.5 27.5q-56 0 -105 -31l-13 54q25 15 54.5 23.5t65.5 8.5q37 0 67.5 -11t52.5 -30t34 -45.5t12 -57.5q0 -23 -8 -44t-21 -38.5t-30.5 -29.5t-36.5 -18q27 -5 53.5 -19.5t47.5 -38.5t33.5 -56t12.5 -71z" />
    <glyph glyph-name="four" unicode="4" horiz-adv-x="479" 
d="M363 179v-179h-63v179h-277l-12 51l309 408h43v-407h80v-52h-80zM299 528q-17 -27 -36 -52.5l-36 -48.5l-149 -196h222v196v49.5t1 50.5z" />
    <glyph glyph-name="five" unicode="5" horiz-adv-x="445" 
d="M403 191q0 -41 -14.5 -77.5t-42 -64t-67.5 -43.5t-91 -16q-36 0 -68.5 8t-51.5 19l-18 67q32 -20 66 -29t69 -9q32 0 60 10.5t49 29t33 45.5t12 60t-12 60t-33 46.5t-48.5 30.5t-58.5 11q-35 0 -63 -5t-51 -15l10 319h268l-13 -55h-195l-5 -195q9 3 23 5t31 2
q44 0 82.5 -14.5t67 -41t45 -64.5t16.5 -84z" />
    <glyph glyph-name="six" unicode="6" horiz-adv-x="493" 
d="M453 191q0 -44 -15 -80.5t-42 -63.5t-64 -42t-82 -15q-42 0 -80 14.5t-66.5 43t-45 70t-16.5 94.5q0 64 22 128.5t61 122.5t92.5 107t116.5 83l64 -28q-95 -47 -165.5 -123t-103.5 -164q14 20 46 37.5t77 17.5t82 -15.5t63.5 -42.5t41 -64t14.5 -80zM389 190
q0 32 -10.5 59t-29 46.5t-44.5 30.5t-57 11q-51 0 -88.5 -26t-51.5 -80q-1 -5 -1 -15v-16q0 -33 11.5 -61.5t31 -49t46 -32t55.5 -11.5t54.5 10.5t44 30t29 45.5t10.5 58z" />
    <glyph glyph-name="seven" unicode="7" horiz-adv-x="441" 
d="M157 0h-68l251 583h-318v55h408z" />
    <glyph glyph-name="eight" unicode="8" horiz-adv-x="498" 
d="M456 173q0 -43 -16.5 -77t-45 -58t-66 -36.5t-79.5 -12.5t-80 12.5t-66 36.5t-44.5 58t-16.5 77q0 36 13 65t33.5 51.5t44.5 37t46 22.5q-21 8 -40.5 21.5t-34.5 32t-24.5 41.5t-9.5 50q0 34 14 62.5t38.5 49t57 32t69.5 11.5t69.5 -11t56.5 -31.5t38 -49t14 -63.5
q0 -27 -9.5 -49.5t-24.5 -41t-34.5 -32t-40.5 -21.5q23 -7 47.5 -22t44.5 -37.5t33 -52t13 -65.5zM366 493q0 22 -9 41t-25 32.5t-37.5 21t-45.5 7.5t-45 -7.5t-36.5 -21t-25 -32.5t-9.5 -41q0 -40 32 -70.5t87 -45.5q54 17 84 46.5t30 69.5zM392 175q0 27 -12.5 50t-33 41
t-47 31t-55.5 21q-28 -8 -54 -21t-45.5 -31t-31 -41t-11.5 -50q0 -29 12 -53t32 -41t46 -26.5t55 -9.5t55 9.5t46 26.5t32 41t12 53z" />
    <glyph glyph-name="nine" unicode="9" horiz-adv-x="493" 
d="M451 428q0 -65 -22 -129t-61 -122.5t-92 -107.5t-116 -83l-64 28q94 48 164.5 123.5t104.5 163.5q-14 -20 -46.5 -37t-77.5 -17q-44 0 -81 15t-63.5 42t-41.5 64t-15 81q0 43 15 79.5t42 63.5t64.5 42t81.5 15q42 0 80 -14.5t66.5 -43t45 -69.5t16.5 -94zM387 439
q0 33 -11.5 61.5t-31.5 49t-46.5 32t-55.5 11.5t-54.5 -10.5t-44 -30t-29 -46t-10.5 -57.5q0 -32 10.5 -59t29 -46.5t44.5 -30.5t57 -11q51 0 88.5 26t51.5 80q1 5 1.5 15t0.5 16z" />
    <glyph glyph-name="colon" unicode=":" horiz-adv-x="187" 
d="M139 408q0 -7 -5 -16.5t-12 -18t-15.5 -14.5t-14.5 -6t-14.5 6t-15.5 14.5t-12 18t-5 16.5t5 16.5t12 18t15.5 14.5t14.5 6t14.5 -6t15.5 -14.5t12 -18t5 -16.5zM139 45q0 -7 -5 -16.5t-12 -18t-15.5 -14.5t-14.5 -6t-14.5 6t-15.5 14.5t-12 18t-5 16.5t5 16.5t12 18
t15.5 14.5t14.5 6t14.5 -6t15.5 -14.5t12 -18t5 -16.5z" />
    <glyph glyph-name="semicolon" unicode=";" horiz-adv-x="187" 
d="M139 408q0 -7 -5 -16.5t-12 -18t-15.5 -14.5t-14.5 -6t-14.5 6t-15.5 14.5t-12 18t-5 16.5t5 16.5t12 18t15.5 14.5t14.5 6t14.5 -6t15.5 -14.5t12 -18t5 -16.5zM140 45q0 -14 -7 -34.5t-18.5 -43t-27 -44t-31.5 -38.5l-28 4q23 28 37.5 58.5t17.5 52.5q-11 3 -24 17.5
t-13 27.5q0 7 5 16.5t12.5 18t15.5 14.5t14 6t14 -6t15.5 -14t12.5 -18t5 -17z" />
    <glyph glyph-name="less" unicode="&#x3c;" horiz-adv-x="351" 
d="M226 100l-177 177l177 177l42 -41l-136 -136l136 -136z" />
    <glyph glyph-name="equal" unicode="=" horiz-adv-x="462" 
d="M44 336v54h374v-54h-374zM44 164v54h374v-54h-374z" />
    <glyph glyph-name="greater" unicode="&#x3e;" horiz-adv-x="351" 
d="M125 100l-41 41l135 136l-135 136l41 41l177 -177z" />
    <glyph glyph-name="question" unicode="?" horiz-adv-x="383" 
d="M343 522q0 -52 -27.5 -92.5t-66.5 -81.5q-29 -31 -42.5 -62t-13.5 -67q0 -18 1 -34.5t4 -29.5l-54 13q-3 13 -5 27.5t-2 30.5q0 48 17 89t48 73q32 32 53.5 64.5t21.5 75.5q0 21 -8 40.5t-23 34.5t-36.5 24t-47.5 9q-39 0 -68.5 -14t-52.5 -37l-14 58q22 21 56 35t78 14
q39 0 72.5 -11.5t58 -33.5t38 -53.5t13.5 -71.5zM221 45q0 -7 -5 -16.5t-12 -18t-15 -14.5t-15 -6q-6 0 -14.5 6t-15.5 14.5t-12 18t-5 16.5t5 16.5t12 18t15.5 14.5t14.5 6q7 0 15 -6t15 -14.5t12 -18t5 -16.5z" />
    <glyph glyph-name="at" unicode="@" horiz-adv-x="768" 
d="M726 385q0 -40 -13 -84t-37.5 -81t-60 -61t-79.5 -24q-30 0 -48.5 19.5t-17.5 57.5q-18 -35 -53 -56t-83 -21q-22 0 -42.5 8.5t-36.5 25t-25.5 40.5t-9.5 55q0 53 20.5 96t53 74t73 47.5t81.5 16.5q38 0 65.5 -11.5t42.5 -25.5l-36 -208q-3 -17 -3 -27q0 -21 7.5 -30.5
t18.5 -9.5q19 0 42 15.5t42.5 42.5t33 63.5t13.5 78.5q0 45 -16.5 84.5t-47 68.5t-74.5 46t-98 17q-69 0 -131.5 -26.5t-109 -72t-74 -107.5t-27.5 -133q0 -55 17.5 -97t47.5 -70t70 -42.5t86 -14.5q67 0 112 32l-16 -58q-15 -10 -41.5 -16.5t-62.5 -6.5q-58 0 -107 19.5
t-84.5 55t-55.5 86t-20 112.5q0 81 31.5 152t86 123t127.5 82t155 30q66 0 118.5 -21t89.5 -57t56.5 -84t19.5 -103zM495 434q-7 5 -21 9.5t-30 4.5q-31 0 -61 -13.5t-53.5 -38t-38 -58t-14.5 -73.5q0 -38 20 -59.5t51 -21.5q43 0 79.5 40.5t52.5 125.5l15 84v0z" />
    <glyph glyph-name="A" unicode="A" horiz-adv-x="601" 
d="M507 0l-73 179h-270l-72 -179h-66l264 651h21l264 -651h-68zM335 430q-9 22 -17.5 47t-16.5 51h-2q-8 -26 -17 -51t-18 -47l-77 -196h224z" />
    <glyph glyph-name="B" unicode="B" horiz-adv-x="505" 
d="M463 190q0 -45 -17 -80.5t-45 -59.5t-64 -37t-75 -13h-193v638h157q33 0 64 -11t55 -31t38 -49.5t14 -66.5q0 -38 -19 -71.5t-51 -47.5q27 -6 51.5 -21.5t43.5 -38t30 -51.5t11 -60zM329 480q0 49 -32.5 74.5t-80.5 25.5h-80v-200h83q45 0 77.5 26t32.5 74zM395 190
q0 31 -12 55.5t-32.5 41.5t-48 26t-57.5 9h-109v-264h113q29 0 55.5 9t46.5 25.5t32 41t12 56.5z" />
    <glyph glyph-name="C" unicode="C" horiz-adv-x="598" 
d="M555 547q-28 18 -72.5 31t-95.5 13q-54 0 -104 -18.5t-88.5 -54t-61.5 -86t-23 -113.5t22.5 -113t61 -85.5t88.5 -54t105 -18.5q111 0 180 43l-16 -68q-30 -17 -70.5 -25.5t-100.5 -8.5q-64 0 -125 22.5t-108 65.5t-76 104t-29 138q0 78 29 139t76.5 103.5t108.5 65
t124 22.5q62 0 109 -12t79 -31z" />
    <glyph glyph-name="D" unicode="D" horiz-adv-x="633" 
d="M590 319q0 -76 -28 -135.5t-76.5 -100t-113 -62t-136.5 -21.5h-167v638h167q72 0 136.5 -21.5t113 -62t76.5 -100t28 -135.5zM521 319q0 64 -22.5 112.5t-62 81.5t-93.5 50t-117 17h-90v-522h90q63 0 117 17t93.5 50t62 81.5t22.5 112.5z" />
    <glyph glyph-name="E" unicode="E" horiz-adv-x="459" 
d="M69 0v638h333v-58h-266v-230h218v-58h-218v-234h301v-58h-368z" />
    <glyph glyph-name="F" unicode="F" horiz-adv-x="424" 
d="M136 580v-230h232v-58h-232v-292h-67v638h339v-58h-272z" />
    <glyph glyph-name="G" unicode="G" horiz-adv-x="675" 
d="M617 58q-43 -33 -101.5 -51t-131.5 -18q-67 0 -128.5 23t-109 65.5t-76 103.5t-28.5 138q0 78 29 139t76 103.5t108 65t125 22.5q63 0 114 -13t87 -36l-14 -59q-35 23 -81.5 36.5t-98.5 13.5q-54 0 -104.5 -19t-88.5 -54t-61 -85.5t-23 -114.5q0 -63 22.5 -113t61 -85
t88.5 -53.5t106 -18.5q54 0 97 13t67 30v158h-168v55h233v-246v0z" />
    <glyph glyph-name="H" unicode="H" horiz-adv-x="638" 
d="M502 0v292h-366v-292h-67v638h67v-288h366v288h67v-638h-67z" />
    <glyph glyph-name="I" unicode="I" horiz-adv-x="239" 
d="M86 0v638h67v-638h-67z" />
    <glyph glyph-name="J" unicode="J" horiz-adv-x="252" 
d="M166 129q0 -57 -15 -101t-40.5 -75.5t-58.5 -50.5t-68 -26l-44 45q77 16 118 67.5t41 147.5v502h67v-509v0z" />
    <glyph glyph-name="K" unicode="K" horiz-adv-x="518" 
d="M422 0l-286 306v-306h-67v638h67v-307l278 307h79l-287 -316l299 -322h-83z" />
    <glyph glyph-name="L" unicode="L" horiz-adv-x="444" 
d="M69 0v638h67v-580h297v-58h-364z" />
    <glyph glyph-name="M" unicode="M" horiz-adv-x="820" 
d="M702 0l-27 331q-3 42 -5.5 83.5t-4.5 82.5h-2q-17 -40 -38.5 -85.5l-40.5 -84.5l-162 -334h-22l-163 334l-39 82.5l-40 86.5h-2q-2 -41 -4.5 -84t-5.5 -81l-26 -331h-61l51 638h43l176 -358l42.5 -88.5t40.5 -90.5h2q18 44 38.5 88l43.5 91l175 358h43l53 -638h-65z" />
    <glyph glyph-name="N" unicode="N" horiz-adv-x="693" 
d="M606 -14l-314 360l-82 95.5l-74 88.5l-2 -1q2 -45 2 -89v-88v-352h-67v638h47l296 -339l73 -85l72 -86l2 1q-2 43 -2 85.5v83.5v340h67v-652h-18z" />
    <glyph glyph-name="O" unicode="O" horiz-adv-x="752" 
d="M710 320q0 -75 -27.5 -136t-73.5 -104.5t-106.5 -67t-126.5 -23.5t-126.5 23.5t-106.5 67t-73.5 104.5t-27.5 136q0 74 27.5 134.5t73.5 104t106.5 67t126.5 23.5t126.5 -23.5t106.5 -67t73.5 -104t27.5 -134.5zM642 320q0 61 -22 111.5t-59 85.5t-85 54.5t-100 19.5
q-53 0 -101 -19.5t-84.5 -54.5t-58.5 -85.5t-22 -111.5q0 -62 22 -112t58.5 -85.5t84.5 -55t101 -19.5q52 0 100 19.5t85 55t59 85.5t22 112z" />
    <glyph glyph-name="P" unicode="P" horiz-adv-x="452" 
d="M434 465q0 -41 -15.5 -73t-41 -54.5t-58.5 -34t-68 -11.5h-115v-292h-67v638h178q36 0 70 -11.5t60 -34t41.5 -54.5t15.5 -73zM366 465q0 27 -10.5 48.5t-28 36t-41 22.5t-50.5 8h-100v-230h104q25 0 48 7.5t40 22.5t27.5 36.5t10.5 48.5z" />
    <glyph glyph-name="Q" unicode="Q" horiz-adv-x="752" 
d="M704 -117q-19 -7 -47 -7q-26 0 -48.5 3t-44.5 10t-45.5 17t-50.5 25q-38 20 -69.5 35t-54.5 25q-62 6 -116.5 32t-96 68.5t-65.5 100.5t-24 128q0 74 27.5 134.5t73.5 104t106.5 67t126.5 23.5t126.5 -23.5t106.5 -67t73.5 -104t27.5 -134.5q0 -62 -20.5 -116t-55.5 -96
t-83 -69t-102 -36v-2q11 -2 26.5 -8.5t38.5 -17.5q48 -24 84 -34.5t71 -10.5q45 0 80 16zM642 320q0 61 -22 111.5t-59 85.5t-85 54.5t-100 19.5q-53 0 -101 -19.5t-84.5 -54.5t-58.5 -85.5t-22 -111.5q0 -62 22 -112t58.5 -85.5t84.5 -55t101 -19.5q52 0 100 19.5t85 55
t59 85.5t22 112z" />
    <glyph glyph-name="R" unicode="R" horiz-adv-x="527" 
d="M459 0l-213 292h-110v-292h-67v638h182q36 0 70 -11.5t60 -34t41.5 -54.5t15.5 -73q0 -63 -35.5 -105.5t-89.5 -57.5l224 -302h-78zM370 465q0 27 -10.5 48.5t-28 36t-41 22.5t-50.5 8h-104v-230h108q25 0 48 7.5t40 22.5t27.5 36.5t10.5 48.5z" />
    <glyph glyph-name="S" unicode="S" horiz-adv-x="462" 
d="M421 171q0 -83 -55.5 -132.5t-151.5 -49.5q-56 0 -99.5 15t-69.5 34l-19 79q42 -32 88.5 -50.5t102.5 -18.5q60 0 98 32t38 85q0 50 -31 82.5t-98 55.5q-86 30 -127 76t-41 109q0 30 11.5 58.5t34.5 51.5t59 37t84 14q44 0 79.5 -11.5t55.5 -25.5l-14 -56
q-19 14 -52.5 25.5t-70.5 11.5q-30 0 -53 -9t-38 -23t-23 -32.5t-8 -36.5q0 -38 28 -68t89 -53q43 -16 77 -35t57.5 -42.5t36 -53.5t12.5 -69z" />
    <glyph glyph-name="T" unicode="T" horiz-adv-x="520" 
d="M293 580v-580h-67v580h-219v58h506v-58h-220z" />
    <glyph glyph-name="U" unicode="U" horiz-adv-x="636" 
d="M567 221q0 -54 -18 -97t-51 -73t-79 -46t-101 -16q-56 0 -101.5 16t-78.5 46t-51 73t-18 97v417h67v-411q0 -84 47.5 -131t135.5 -47q87 0 135 47t48 131v411h65v-417v0z" />
    <glyph glyph-name="V" unicode="V" horiz-adv-x="561" 
d="M290 -10h-19l-255 648h71l134 -342l31.5 -83.5t30.5 -87.5h2l29.5 86t31.5 85l135 342h64z" />
    <glyph glyph-name="W" unicode="W" horiz-adv-x="921" 
d="M669 -10h-20l-128 372l-29.5 88.5l-30.5 97.5h-2l-30.5 -97.5l-29.5 -88.5l-127 -372h-21l-224 648h68l116 -335l28 -81t25 -86h2q12 43 25.5 85l27.5 82l115 335h59l115 -335q29 -82 52 -167h2q12 41 26 83.5l28 83.5l115 335h63z" />
    <glyph glyph-name="X" unicode="X" horiz-adv-x="551" 
d="M445 0l-115 184q-14 21 -27.5 44.5l-27.5 47.5h-2q-13 -24 -28 -48l-27 -44l-117 -184h-72l206 325l-196 313h77l109 -174l26 -43t25 -44h2q11 21 25 44l26 43l111 174h72l-196 -309l206 -329h-77z" />
    <glyph glyph-name="Y" unicode="Y" horiz-adv-x="578" 
d="M321 295v-295h-66v295l-243 343h74l138 -195l33 -48l33 -49h2l32 48.5t34 48.5l139 195h69z" />
    <glyph glyph-name="Z" unicode="Z" horiz-adv-x="494" 
d="M26 0v15l220 376l57.5 98l55.5 91l-1 1h-306v57h402v-15l-222 -378l-56.5 -95.5l-55.5 -91.5l1 -1h343v-57h-438z" />
    <glyph glyph-name="bracketleft" unicode="[" horiz-adv-x="295" 
d="M65 -218v918h197v-54h-134v-810h134v-54h-197z" />
    <glyph glyph-name="backslash" unicode="\" horiz-adv-x="621" 
d="M549 -15l-521 646l42 34l523 -645z" />
    <glyph glyph-name="bracketright" unicode="]" horiz-adv-x="295" 
d="M36 -218v54h135v810h-135v54h197v-918h-197z" />
    <glyph glyph-name="asciicircum" unicode="^" horiz-adv-x="378" 
d="M301 500q-33 15 -60.5 34.5t-51.5 45.5q-24 -26 -51.5 -45.5t-60.5 -34.5l-41 40q46 20 85 54.5t68 76.5q29 -42 68 -76.5t85 -54.5z" />
    <glyph glyph-name="underscore" unicode="_" horiz-adv-x="500" 
d="M-1 -231v55h503v-55h-503z" />
    <glyph glyph-name="grave" unicode="`" 
d="M241 516q-45 11 -87 29.5t-79 50.5l13 59q37 -38 87.5 -64t101.5 -40z" />
    <glyph glyph-name="a" unicode="a" horiz-adv-x="446" 
d="M382 -10q-23 5 -43 24t-25 45q-18 -32 -54 -50.5t-78 -18.5q-32 0 -58.5 10.5t-46 28.5t-30 42t-10.5 52q0 33 12 58t32.5 42.5t46.5 27t54 12.5l121 12v43q0 42 -28 66t-79 24q-32 0 -64.5 -9.5t-55.5 -24.5l-13 53q26 18 62 27t74 9q36 0 67 -10t53.5 -29t35 -47.5
t12.5 -64.5v-207q0 -34 17 -52t39 -22zM303 222l-111 -10q-44 -4 -69 -28t-25 -61q0 -34 25 -56.5t61 -22.5q20 0 41 8.5t38.5 23.5t28.5 36.5t11 48.5v61z" />
    <glyph glyph-name="b" unicode="b" horiz-adv-x="511" 
d="M474 228q0 -54 -18.5 -97.5t-51.5 -75t-79 -48.5t-101 -17q-48 0 -88.5 12t-69.5 30v680h63v-275q17 12 43.5 19t59.5 7q49 0 93 -17t77 -48t52.5 -74.5t19.5 -95.5zM410 228q0 40 -14.5 73t-39 56.5t-57 36.5t-67.5 13q-32 0 -59 -8.5t-44 -22.5v-309q17 -8 40 -14.5
t55 -6.5q42 0 76.5 13.5t59 37.5t37.5 57.5t13 73.5z" />
    <glyph glyph-name="c" unicode="c" horiz-adv-x="457" 
d="M409 372q-26 17 -58.5 26t-67.5 9q-38 0 -71.5 -13t-58 -37t-38.5 -57.5t-14 -73.5t14.5 -73t39 -57t58 -37t72.5 -13q35 0 66.5 7.5t66.5 25.5l-16 -64q-23 -13 -55 -19t-67 -6q-48 0 -92 16.5t-77.5 47.5t-53.5 74.5t-20 97.5t19.5 98t53 74.5t77.5 47.5t93 17
q44 0 80 -10t62 -25z" />
    <glyph glyph-name="d" unicode="d" horiz-adv-x="529" 
d="M407 0l-2 38q-23 -24 -59.5 -36t-80.5 -12q-42 0 -83 16t-73.5 46.5t-52 74t-19.5 99.5q0 52 18 95.5t50 75t75.5 49t94.5 17.5q38 0 71 -11t53 -26v286h64v-712h-56zM399 359q-20 20 -53 34t-71 14q-37 0 -68.5 -13.5t-55 -37.5t-37 -57t-13.5 -73t13.5 -73t37 -57
t55 -37t68.5 -13q39 0 71 13t53 36v264z" />
    <glyph glyph-name="e" unicode="e" horiz-adv-x="483" 
d="M446 294v-16t-2 -15l-38 -37h-303q-2 -34 10 -66.5t36 -57.5t58 -40.5t76 -15.5q41 0 75 10.5t67 34.5l-18 -70q-26 -15 -57.5 -23t-73.5 -8q-49 0 -92.5 17.5t-76 48.5t-51.5 74.5t-19 95.5q0 55 19 98.5t50 74.5t70 47.5t80 16.5q46 0 81.5 -14.5t59.5 -38.5
t36.5 -54.5t12.5 -61.5zM383 291q0 20 -8 40.5t-23.5 37.5t-38.5 28t-54 11q-28 0 -53.5 -11t-45.5 -29t-34 -41.5t-18 -48.5h274q1 4 1 13z" />
    <glyph glyph-name="f" unicode="f" horiz-adv-x="319" 
d="M338 647q-14 7 -33 11t-39 4q-54 0 -83.5 -40t-29.5 -101v-68h143l-12 -52h-131v-401h-64v401h-72v52h72v51q0 105 49 158.5t138 53.5q21 0 40.5 -4t34.5 -11z" />
    <glyph glyph-name="g" unicode="g" horiz-adv-x="456" 
d="M425 -87q0 -31 -14.5 -57t-41 -45.5t-63 -30.5t-80.5 -11q-45 0 -82 12t-63.5 33t-41 49.5t-14.5 61.5q0 28 9 51t24 41t34.5 29.5t39.5 16.5l-54 49q0 12 5.5 23t14.5 21t20.5 17.5t22.5 10.5q-34 17 -58.5 50.5t-24.5 78.5q0 33 12.5 60.5t34.5 47.5t52.5 31t66.5 11
q18 0 32 -2.5t25 -5.5q22 -7 56 -7q20 0 38 4.5t31 11.5l13 -52q-8 -5 -28 -9.5t-34 -4.5q14 -14 23.5 -36t9.5 -49q0 -30 -11.5 -57.5t-33 -48.5t-52.5 -33t-69 -12t-58 -10.5t-20 -24.5q0 -3 12.5 -15t28.5 -17l117 -40q58 -20 89.5 -52.5t31.5 -89.5zM331 313
q0 20 -8 37.5t-22.5 31t-34 21t-41.5 7.5q-47 0 -77.5 -28.5t-30.5 -68.5q0 -42 30.5 -70t77.5 -28q21 0 40.5 7.5t34 21t23 31t8.5 38.5zM365 -87q0 32 -21 54t-59 34l-91 28q-49 -1 -80.5 -30t-31.5 -74q0 -20 9.5 -38.5t28 -33t45 -23.5t60.5 -9q33 0 59 8t44 21
t27.5 29.5t9.5 33.5z" />
    <glyph glyph-name="h" unicode="h" horiz-adv-x="506" 
d="M383 0v299q0 48 -32 78.5t-93 30.5q-59 0 -94 -30.5t-35 -78.5v-299h-63v712h63v-310q17 24 51.5 42.5t92.5 18.5q37 0 68.5 -11t55 -31t36.5 -49.5t13 -66.5v-305h-63z" />
    <glyph glyph-name="i" unicode="i" horiz-adv-x="230" 
d="M158 589q0 -6 -4.5 -14.5t-11.5 -16t-14 -12.5t-13 -5t-13 5t-13.5 12.5t-11 16t-4.5 14.5t4.5 14.5t11 16t13.5 13t13 5.5t13 -5.5t14 -13t11.5 -16t4.5 -14.5zM83 0v453h64v-453h-64z" />
    <glyph glyph-name="j" unicode="j" horiz-adv-x="230" 
d="M157 589q0 -6 -4.5 -14.5t-11 -16t-13.5 -12.5t-13 -5t-13 5t-13.5 12.5t-11 16t-4.5 14.5t4.5 14.5t11 16t13.5 13t13 5.5t13 -5.5t13.5 -13t11 -16t4.5 -14.5zM147 -52q0 -35 -10 -65t-26.5 -53t-38.5 -38.5t-47 -21.5l-41 40q48 11 73.5 46t25.5 97v500h64v-505v0z
" />
    <glyph glyph-name="k" unicode="k" horiz-adv-x="431" 
d="M344 0l-215 220v-220h-63v712h63v-475l210 216h76l-214 -222l225 -231h-82z" />
    <glyph glyph-name="l" unicode="l" horiz-adv-x="253" 
d="M161 -15q-13 4 -27 12t-25 21.5t-18.5 33.5t-7.5 47v613h63v-606q0 -32 17.5 -52.5t40.5 -25.5z" />
    <glyph glyph-name="m" unicode="m" horiz-adv-x="764" 
d="M642 0v318q0 43 -29.5 66.5t-82.5 23.5q-52 0 -84 -24t-32 -66v-318h-63v318q0 43 -30 66.5t-83 23.5q-52 0 -84 -24t-32 -66v-318h-63v453h57l2 -50q18 25 50 42.5t89 17.5q45 0 81 -19.5t53 -51.5q17 29 55.5 50t101.5 21q34 0 62.5 -10t49.5 -28.5t33 -44.5t12 -57
v-323h-63z" />
    <glyph glyph-name="n" unicode="n" horiz-adv-x="498" 
d="M376 0v299q0 48 -32 78.5t-93 30.5q-59 0 -94 -30.5t-35 -78.5v-299h-63v453h57l2 -55q18 26 53 45.5t95 19.5q37 0 68.5 -11t55 -31t36.5 -49.5t13 -66.5v-305h-63z" />
    <glyph glyph-name="o" unicode="o" horiz-adv-x="551" 
d="M514 226q0 -52 -18 -95t-50 -74.5t-75.5 -49t-94.5 -17.5t-94.5 17.5t-75.5 49t-50.5 74.5t-18.5 95t18.5 95.5t50.5 75t75.5 49t94.5 17.5t94.5 -17.5t75.5 -49t50 -75t18 -95.5zM450 226q0 40 -13.5 73t-37.5 57t-55.5 37.5t-67.5 13.5q-37 0 -69 -13.5t-55.5 -37.5
t-37 -57t-13.5 -73t13.5 -73t37 -57t55.5 -37t69 -13q36 0 67.5 13t55.5 37t37.5 57t13.5 73z" />
    <glyph glyph-name="p" unicode="p" horiz-adv-x="529" 
d="M492 227q0 -52 -18 -95.5t-50 -75t-75.5 -49t-94.5 -17.5q-38 0 -71.5 11t-53.5 26v-258h-63v684h56l1 -38q24 24 60 36t81 12q42 0 83 -16t73 -46.5t52 -74.5t20 -99zM428 227q0 40 -13.5 73t-37 57t-55 37t-68.5 13q-39 0 -71 -13t-54 -36v-264q20 -20 53.5 -34
t71.5 -14q37 0 68.5 13.5t55 37.5t37 57t13.5 73z" />
    <glyph glyph-name="q" unicode="q" horiz-adv-x="511" 
d="M382 -231v247q-19 -12 -45 -19t-57 -7q-50 0 -94 17t-77 48.5t-52.5 75.5t-19.5 98t19 97t51.5 73.5t76 47t92.5 16.5q32 0 66 -8t58 -21l26 25h19v-690h-63zM382 379q-18 12 -46 20t-60 8q-36 0 -68 -13t-56 -36.5t-37.5 -56.5t-13.5 -72q0 -42 14.5 -75.5t39 -57.5
t57 -37t68.5 -13q30 0 56 8.5t46 22.5v302z" />
    <glyph glyph-name="r" unicode="r" horiz-adv-x="318" 
d="M292 405q-32 0 -61 -11.5t-51 -34t-35 -57t-13 -80.5v-222h-63v453h60l3 -87q14 42 55.5 67.5t101.5 25.5l13 -54h-10z" />
    <glyph glyph-name="s" unicode="s" horiz-adv-x="372" 
d="M330 118q0 -57 -41.5 -92.5t-113.5 -35.5q-42 0 -74.5 10.5t-52.5 26.5l-17 73q28 -26 65.5 -41t79.5 -15q38 0 64.5 19t26.5 52q0 32 -23 52.5t-61 34.5q-63 23 -97.5 55t-34.5 86q0 27 10.5 49t29 37.5t44.5 24.5t56 9q37 0 67.5 -10t43.5 -19l-12 -52q-14 9 -40 18.5
t-60 9.5t-55.5 -18t-21.5 -47q0 -30 20.5 -48t58.5 -32q65 -23 101.5 -57t36.5 -90z" />
    <glyph glyph-name="t" unicode="t" horiz-adv-x="348" 
d="M319 401h-149v-288q0 -33 19.5 -49t47.5 -16q32 0 52 9l-15 -59q-15 -5 -42 -5q-53 0 -89 31t-36 91v286h-94v52h94v98l63 33v-131h162z" />
    <glyph glyph-name="u" unicode="u" horiz-adv-x="498" 
d="M382 0l-2 55q-18 -26 -53 -45.5t-95 -19.5q-37 0 -68.5 11t-55 31t-36.5 49.5t-13 66.5v305h63v-299q0 -48 32 -78.5t93 -30.5q59 0 94 30.5t35 78.5v299h63v-453h-57z" />
    <glyph glyph-name="v" unicode="v" horiz-adv-x="459" 
d="M241 -9h-23l-191 462h64l97 -232l22.5 -57t20.5 -58h2q10 29 21 57.5l23 57.5l95 232h60z" />
    <glyph glyph-name="w" unicode="w" horiz-adv-x="711" 
d="M510 -9h-20l-91 247l-21.5 62t-20.5 64h-2l-21 -64.5t-21 -59.5l-91 -249h-21l-169 462h61l82 -226q11 -29 20 -58l17 -55h2l17.5 56t19.5 56l82 227h48l82 -226q10 -26 19.5 -55t17.5 -58h2l18.5 57l19.5 55l81 227h58z" />
    <glyph glyph-name="x" unicode="x" horiz-adv-x="434" 
d="M329 0l-76 120q-20 30 -35 61h-2q-8 -15 -18.5 -31l-19.5 -30l-76 -120h-68l147 231l-139 222h71l71 -114q18 -29 33 -57h2l34 57l71 114h69l-139 -220l146 -233h-71z" />
    <glyph glyph-name="y" unicode="y" horiz-adv-x="464" 
d="M263 39q-52 -122 -108.5 -185t-123.5 -87l-39 40q64 20 114 74.5t94 158.5l-175 413h66l97 -228l22.5 -55.5l22.5 -58.5h2l22 56.5l23 55.5l98 230h61z" />
    <glyph glyph-name="z" unicode="z" horiz-adv-x="406" 
d="M26 0v12l157 258l40 65t41 63l-1 1h-218v54h315v-12l-158 -258l-39.5 -64l-40.5 -64l1 -1h254v-54h-351z" />
    <glyph glyph-name="braceleft" unicode="{" horiz-adv-x="330" 
d="M287 -219q-50 0 -84.5 19t-56 52.5t-31 78.5t-9.5 97q0 71 -20 125.5t-71 86.5q51 32 71 87t20 126q0 51 9.5 96t31 78.5t56 52.5t84.5 19l14 -50q-37 0 -62.5 -14t-41 -40.5t-22.5 -63t-7 -81.5q0 -68 -18 -120t-60 -90q42 -37 60 -89.5t18 -120.5q0 -45 7 -81.5
t22.5 -63t41 -40.5t62.5 -14z" />
    <glyph glyph-name="bar" unicode="|" horiz-adv-x="215" 
d="M80 -231v943h55v-943h-55z" />
    <glyph glyph-name="braceright" unicode="}" horiz-adv-x="330" 
d="M316 240q-51 -32 -71 -86.5t-20 -125.5q0 -52 -9.5 -97t-31 -78.5t-56.5 -52.5t-85 -19l-13 50q37 0 62 14t40.5 40.5t22.5 63t7 81.5q0 68 18 120.5t61 89.5q-43 38 -61 90t-18 120q0 45 -7 81.5t-22.5 63t-40.5 40.5t-62 14l13 50q50 0 85 -19t56.5 -52.5t31 -78.5
t9.5 -96q0 -71 20 -126t71 -87z" />
    <glyph glyph-name="asciitilde" unicode="~" horiz-adv-x="390" 
d="M324 269q-29 -21 -64 -33.5t-72 -14.5l-16 55q-28 -2 -59 -14.5t-57 -29.5l11 52q30 19 64 32.5t72 15.5l16 -56q29 2 59.5 15t56.5 29z" />
    <glyph glyph-name="Adieresis" unicode="&#xc4;" horiz-adv-x="601" 
d="M507 0l-73 179h-270l-72 -179h-66l264 651h21l264 -651h-68zM335 430q-9 22 -17.5 47t-16.5 51h-2q-8 -26 -17 -51t-18 -47l-77 -196h224zM412 766q0 -6 -4 -14.5t-10.5 -16.5t-13.5 -13.5t-13 -5.5t-13.5 5.5t-13.5 13.5t-10.5 16.5t-4.5 14.5t4.5 15t10.5 17t13.5 13.5
t13.5 5.5t13 -5.5t13.5 -13.5t10.5 -17t4 -15zM275 766q0 -6 -4.5 -14.5t-10.5 -16.5t-13.5 -13.5t-13.5 -5.5q-5 0 -12.5 5.5t-14 13.5t-11 16.5t-4.5 14.5t4.5 15t11 17t14 13.5t12.5 5.5q6 0 13.5 -5.5t13.5 -13.5t10.5 -17t4.5 -15z" />
    <glyph glyph-name="Aring" unicode="&#xc5;" horiz-adv-x="601" 
d="M507 0l-73 179h-270l-72 -179h-66l264 651h21l264 -651h-68zM335 430q-9 22 -17.5 47t-16.5 51h-2q-8 -26 -17 -51t-18 -47l-77 -196h224zM402 807q0 -21 -8 -39.5t-22 -32t-32 -21.5t-39 -8t-39 8t-32 21.5t-22 32t-8 39.5t8 39t22 31.5t32 21.5t39 8t39 -8t32 -21.5
t22 -31.5t8 -39zM361 807q0 26 -17 42.5t-43 16.5t-43 -16.5t-17 -42.5t17 -43t43 -17t43 17t17 43z" />
    <glyph glyph-name="Ccedilla" unicode="&#xc7;" horiz-adv-x="598" 
d="M555 547q-28 18 -72.5 31t-95.5 13q-54 0 -104 -18.5t-88.5 -54t-61.5 -86t-23 -113.5t22.5 -113t61 -85.5t88.5 -54t105 -18.5q111 0 180 43l-16 -68q-30 -17 -69.5 -25t-99.5 -9l-6 -22q16 -1 32 -7.5t29 -19t21.5 -29.5t8.5 -39q0 -24 -9.5 -42.5t-24.5 -30.5
t-33.5 -18t-37.5 -6q-41 0 -75 24l9 38q17 -13 33 -17.5t34 -4.5q21 0 39 14t18 41q0 29 -19.5 42.5t-42.5 13.5h-11t-12 -2l16 66q-61 5 -117 30t-98.5 67.5t-68 101t-25.5 130.5q0 78 29 139t76.5 103.5t108.5 65t124 22.5q62 0 109 -12t79 -31z" />
    <glyph glyph-name="Eacute" unicode="&#xc9;" horiz-adv-x="459" 
d="M69 0v638h333v-58h-266v-230h218v-58h-218v-234h301v-58h-368zM380 796q-37 -32 -79 -50.5t-87 -29.5l-36 35q51 14 101.5 40t87.5 64l13 -59v0z" />
    <glyph glyph-name="Ntilde" unicode="&#xd1;" horiz-adv-x="693" 
d="M606 -14l-314 360l-82 95.5l-74 88.5l-2 -1q2 -45 2 -89v-88v-352h-67v638h47l296 -339l73 -85l72 -86l2 1q-2 43 -2 85.5v83.5v340h67v-652h-18zM474 765q-29 -21 -63.5 -33.5t-72.5 -14.5l-16 55q-28 -2 -59 -14.5t-57 -29.5l11 52q30 19 64.5 32.5t71.5 15.5l16 -56
q29 2 59.5 15t56.5 29z" />
    <glyph glyph-name="Odieresis" unicode="&#xd6;" horiz-adv-x="752" 
d="M710 320q0 -75 -27.5 -136t-73.5 -104.5t-106.5 -67t-126.5 -23.5t-126.5 23.5t-106.5 67t-73.5 104.5t-27.5 136q0 74 27.5 134.5t73.5 104t106.5 67t126.5 23.5t126.5 -23.5t106.5 -67t73.5 -104t27.5 -134.5zM642 320q0 61 -22 111.5t-59 85.5t-85 54.5t-100 19.5
q-53 0 -101 -19.5t-84.5 -54.5t-58.5 -85.5t-22 -111.5q0 -62 22 -112t58.5 -85.5t84.5 -55t101 -19.5q52 0 100 19.5t85 55t59 85.5t22 112zM485 766q0 -6 -4 -14.5t-10.5 -16.5t-13.5 -13.5t-13 -5.5t-13.5 5.5t-13.5 13.5t-10.5 16.5t-4.5 14.5t4.5 15t10.5 17t13.5 13.5
t13.5 5.5t13 -5.5t13.5 -13.5t10.5 -17t4 -15zM348 766q0 -6 -4.5 -14.5t-10.5 -16.5t-13.5 -13.5t-13.5 -5.5q-5 0 -12.5 5.5t-14 13.5t-11 16.5t-4.5 14.5t4.5 15t11 17t14 13.5t12.5 5.5q6 0 13.5 -5.5t13.5 -13.5t10.5 -17t4.5 -15z" />
    <glyph glyph-name="Udieresis" unicode="&#xdc;" horiz-adv-x="636" 
d="M567 221q0 -54 -18 -97t-51 -73t-79 -46t-101 -16q-56 0 -101.5 16t-78.5 46t-51 73t-18 97v417h67v-411q0 -84 47.5 -131t135.5 -47q87 0 135 47t48 131v411h65v-417v0zM430 766q0 -6 -4 -14.5t-10.5 -16.5t-13.5 -13.5t-13 -5.5t-13.5 5.5t-13.5 13.5t-10.5 16.5
t-4.5 14.5t4.5 15t10.5 17t13.5 13.5t13.5 5.5t13 -5.5t13.5 -13.5t10.5 -17t4 -15zM293 766q0 -6 -4.5 -14.5t-10.5 -16.5t-13.5 -13.5t-13.5 -5.5q-5 0 -12.5 5.5t-14 13.5t-11 16.5t-4.5 14.5t4.5 15t11 17t14 13.5t12.5 5.5q6 0 13.5 -5.5t13.5 -13.5t10.5 -17t4.5 -15z
" />
    <glyph glyph-name="aacute" unicode="&#xe1;" horiz-adv-x="446" 
d="M382 -10q-23 5 -43 24t-25 45q-18 -32 -54 -50.5t-78 -18.5q-32 0 -58.5 10.5t-46 28.5t-30 42t-10.5 52q0 33 12 58t32.5 42.5t46.5 27t54 12.5l121 12v43q0 42 -28 66t-79 24q-32 0 -64.5 -9.5t-55.5 -24.5l-13 53q26 18 62 27t74 9q36 0 67 -10t53.5 -29t35 -47.5
t12.5 -64.5v-207q0 -34 17 -52t39 -22zM303 222l-111 -10q-44 -4 -69 -28t-25 -61q0 -34 25 -56.5t61 -22.5q20 0 41 8.5t38.5 23.5t28.5 36.5t11 48.5v61zM308 598q-32 -26 -67.5 -42t-73.5 -26l-31 30q43 12 86 34.5t75 54.5l11 -51v0z" />
    <glyph glyph-name="agrave" unicode="&#xe0;" horiz-adv-x="446" 
d="M382 -10q-23 5 -43 24t-25 45q-18 -32 -54 -50.5t-78 -18.5q-32 0 -58.5 10.5t-46 28.5t-30 42t-10.5 52q0 33 12 58t32.5 42.5t46.5 27t54 12.5l121 12v43q0 42 -28 66t-79 24q-32 0 -64.5 -9.5t-55.5 -24.5l-13 53q26 18 62 27t74 9q36 0 67 -10t53.5 -29t35 -47.5
t12.5 -64.5v-207q0 -34 17 -52t39 -22zM303 222l-111 -10q-44 -4 -69 -28t-25 -61q0 -34 25 -56.5t61 -22.5q20 0 41 8.5t38.5 23.5t28.5 36.5t11 48.5v61zM227 530q-38 10 -73.5 26t-67.5 42l11 51q32 -32 75 -54.5t86 -34.5z" />
    <glyph glyph-name="acircumflex" unicode="&#xe2;" horiz-adv-x="446" 
d="M382 -10q-23 5 -43 24t-25 45q-18 -32 -54 -50.5t-78 -18.5q-32 0 -58.5 10.5t-46 28.5t-30 42t-10.5 52q0 33 12 58t32.5 42.5t46.5 27t54 12.5l121 12v43q0 42 -28 66t-79 24q-32 0 -64.5 -9.5t-55.5 -24.5l-13 53q26 18 62 27t74 9q36 0 67 -10t53.5 -29t35 -47.5
t12.5 -64.5v-207q0 -34 17 -52t39 -22zM303 222l-111 -10q-44 -4 -69 -28t-25 -61q0 -34 25 -56.5t61 -22.5q20 0 41 8.5t38.5 23.5t28.5 36.5t11 48.5v61zM284 531q-25 11 -44.5 24.5t-36.5 33.5q-17 -20 -37 -33.5t-45 -24.5l-29 28q33 15 61 40t50 55q21 -30 49 -55
t61 -40z" />
    <glyph glyph-name="adieresis" unicode="&#xe4;" horiz-adv-x="446" 
d="M382 -10q-23 5 -43 24t-25 45q-18 -32 -54 -50.5t-78 -18.5q-32 0 -58.5 10.5t-46 28.5t-30 42t-10.5 52q0 33 12 58t32.5 42.5t46.5 27t54 12.5l121 12v43q0 42 -28 66t-79 24q-32 0 -64.5 -9.5t-55.5 -24.5l-13 53q26 18 62 27t74 9q36 0 67 -10t53.5 -29t35 -47.5
t12.5 -64.5v-207q0 -34 17 -52t39 -22zM303 222l-111 -10q-44 -4 -69 -28t-25 -61q0 -34 25 -56.5t61 -22.5q20 0 41 8.5t38.5 23.5t28.5 36.5t11 48.5v61zM299 573q0 -5 -3.5 -12.5t-9 -14t-11.5 -11t-11 -4.5t-11 4.5t-11.5 11t-9 14t-3.5 12.5q0 6 3.5 13t9 14t11.5 11.5
t11 4.5t11 -4.5t11.5 -11.5t9 -14t3.5 -13zM183 573q0 -5 -3.5 -12.5t-9 -14t-12 -11t-11.5 -4.5t-11 4.5t-11.5 11t-9.5 14t-4 12.5q0 6 4 13t9.5 14t11.5 11.5t11 4.5t11.5 -4.5t12 -11.5t9 -14t3.5 -13z" />
    <glyph glyph-name="atilde" unicode="&#xe3;" horiz-adv-x="446" 
d="M382 -10q-23 5 -43 24t-25 45q-18 -32 -54 -50.5t-78 -18.5q-32 0 -58.5 10.5t-46 28.5t-30 42t-10.5 52q0 33 12 58t32.5 42.5t46.5 27t54 12.5l121 12v43q0 42 -28 66t-79 24q-32 0 -64.5 -9.5t-55.5 -24.5l-13 53q26 18 62 27t74 9q36 0 67 -10t53.5 -29t35 -47.5
t12.5 -64.5v-207q0 -34 17 -52t39 -22zM303 222l-111 -10q-44 -4 -69 -28t-25 -61q0 -34 25 -56.5t61 -22.5q20 0 41 8.5t38.5 23.5t28.5 36.5t11 48.5v61zM322 572q-25 -18 -54 -28.5t-61 -12.5l-14 47q-23 -2 -50 -12.5t-49 -24.5l10 44q26 16 55 27.5t60 13.5l14 -48
q24 2 50.5 13t48.5 25z" />
    <glyph glyph-name="aring" unicode="&#xe5;" horiz-adv-x="446" 
d="M382 -10q-23 5 -43 24t-25 45q-18 -32 -54 -50.5t-78 -18.5q-32 0 -58.5 10.5t-46 28.5t-30 42t-10.5 52q0 33 12 58t32.5 42.5t46.5 27t54 12.5l121 12v43q0 42 -28 66t-79 24q-32 0 -64.5 -9.5t-55.5 -24.5l-13 53q26 18 62 27t74 9q36 0 67 -10t53.5 -29t35 -47.5
t12.5 -64.5v-207q0 -34 17 -52t39 -22zM303 222l-111 -10q-44 -4 -69 -28t-25 -61q0 -34 25 -56.5t61 -22.5q20 0 41 8.5t38.5 23.5t28.5 36.5t11 48.5v61zM288 608q0 -18 -7 -33.5t-18.5 -27.5t-27 -18.5t-33.5 -6.5q-17 0 -32.5 6.5t-27 18.5t-18.5 27.5t-7 33.5t7 33.5
t18.5 27t27 18t32.5 6.5q18 0 33.5 -6.5t27 -18t18.5 -27t7 -33.5zM253 608q0 22 -14.5 36t-36.5 14t-36.5 -14t-14.5 -36t14.5 -36.5t36.5 -14.5t36.5 14.5t14.5 36.5z" />
    <glyph glyph-name="ccedilla" unicode="&#xe7;" horiz-adv-x="457" 
d="M409 372q-26 17 -58.5 26t-67.5 9q-38 0 -71.5 -13t-58 -37t-38.5 -57.5t-14 -73.5t14.5 -73t39 -57t58 -37t72.5 -13q35 0 66.5 7.5t66.5 25.5l-16 -64q-25 -14 -60.5 -20t-64.5 -5l-5 -19q13 0 27 -6t25 -16t18 -25t7 -33q0 -21 -8 -36.5t-20.5 -25.5t-28 -15t-31.5 -5
q-36 0 -65 20l8 32q15 -11 28.5 -14.5t28.5 -3.5q18 0 33.5 12t15.5 35t-16.5 35t-35.5 12q-5 0 -10.5 0.5t-10.5 -1.5l14 56q-44 5 -83 23.5t-68 48.5t-46 71t-17 91q0 54 19.5 98t53 74.5t77.5 47.5t93 17q44 0 80 -10t62 -25z" />
    <glyph glyph-name="eacute" unicode="&#xe9;" horiz-adv-x="483" 
d="M446 294v-16t-2 -15l-38 -37h-303q-2 -34 10 -66.5t36 -57.5t58 -40.5t76 -15.5q41 0 75 10.5t67 34.5l-18 -70q-26 -15 -57.5 -23t-73.5 -8q-49 0 -92.5 17.5t-76 48.5t-51.5 74.5t-19 95.5q0 55 19 98.5t50 74.5t70 47.5t80 16.5q46 0 81.5 -14.5t59.5 -38.5
t36.5 -54.5t12.5 -61.5zM383 291q0 20 -8 40.5t-23.5 37.5t-38.5 28t-54 11q-28 0 -53.5 -11t-45.5 -29t-34 -41.5t-18 -48.5h274q1 4 1 13zM370 598q-32 -26 -67.5 -42t-73.5 -26l-31 30q43 12 86 34.5t75 54.5l11 -51v0z" />
    <glyph glyph-name="egrave" unicode="&#xe8;" horiz-adv-x="483" 
d="M446 294v-16t-2 -15l-38 -37h-303q-2 -34 10 -66.5t36 -57.5t58 -40.5t76 -15.5q41 0 75 10.5t67 34.5l-18 -70q-26 -15 -57.5 -23t-73.5 -8q-49 0 -92.5 17.5t-76 48.5t-51.5 74.5t-19 95.5q0 55 19 98.5t50 74.5t70 47.5t80 16.5q46 0 81.5 -14.5t59.5 -38.5
t36.5 -54.5t12.5 -61.5zM383 291q0 20 -8 40.5t-23.5 37.5t-38.5 28t-54 11q-28 0 -53.5 -11t-45.5 -29t-34 -41.5t-18 -48.5h274q1 4 1 13zM290 530q-38 10 -73.5 26t-67.5 42l11 51q32 -32 75 -54.5t86 -34.5z" />
    <glyph glyph-name="ecircumflex" unicode="&#xea;" horiz-adv-x="483" 
d="M446 294v-16t-2 -15l-38 -37h-303q-2 -34 10 -66.5t36 -57.5t58 -40.5t76 -15.5q41 0 75 10.5t67 34.5l-18 -70q-26 -15 -57.5 -23t-73.5 -8q-49 0 -92.5 17.5t-76 48.5t-51.5 74.5t-19 95.5q0 55 19 98.5t50 74.5t70 47.5t80 16.5q46 0 81.5 -14.5t59.5 -38.5
t36.5 -54.5t12.5 -61.5zM383 291q0 20 -8 40.5t-23.5 37.5t-38.5 28t-54 11q-28 0 -53.5 -11t-45.5 -29t-34 -41.5t-18 -48.5h274q1 4 1 13zM341 531q-24 11 -43.5 24.5t-36.5 33.5q-17 -20 -37.5 -33.5t-44.5 -24.5l-29 28q32 15 60.5 40t50.5 55q21 -30 49 -55t61 -40z
" />
    <glyph glyph-name="edieresis" unicode="&#xeb;" horiz-adv-x="483" 
d="M446 294v-16t-2 -15l-38 -37h-303q-2 -34 10 -66.5t36 -57.5t58 -40.5t76 -15.5q41 0 75 10.5t67 34.5l-18 -70q-26 -15 -57.5 -23t-73.5 -8q-49 0 -92.5 17.5t-76 48.5t-51.5 74.5t-19 95.5q0 55 19 98.5t50 74.5t70 47.5t80 16.5q46 0 81.5 -14.5t59.5 -38.5
t36.5 -54.5t12.5 -61.5zM383 291q0 20 -8 40.5t-23.5 37.5t-38.5 28t-54 11q-28 0 -53.5 -11t-45.5 -29t-34 -41.5t-18 -48.5h274q1 4 1 13zM351 573q0 -5 -3.5 -12.5t-9 -14t-11.5 -11t-11 -4.5t-11.5 4.5t-12 11t-9 14t-3.5 12.5q0 6 3.5 13t9 14t12 11.5t11.5 4.5
t11 -4.5t11.5 -11.5t9 -14t3.5 -13zM234 573q0 -5 -3.5 -12.5t-9 -14t-11.5 -11t-11 -4.5t-11 4.5t-11.5 11t-9.5 14t-4 12.5q0 6 4 13t9.5 14t11.5 11.5t11 4.5t11 -4.5t11.5 -11.5t9 -14t3.5 -13z" />
    <glyph glyph-name="iacute" unicode="&#xed;" horiz-adv-x="230" 
d="M83 0v453h64v-453h-64zM230 598q-32 -26 -67.5 -42t-73.5 -26l-31 30q43 12 86 34.5t75 54.5l11 -51v0z" />
    <glyph glyph-name="igrave" unicode="&#xec;" horiz-adv-x="230" 
d="M83 0v453h64v-453h-64zM141 530q-38 10 -73.5 26t-67.5 42l11 51q32 -32 75 -54.5t86 -34.5z" />
    <glyph glyph-name="icircumflex" unicode="&#xee;" horiz-adv-x="230" 
d="M83 0v453h64v-453h-64zM196 531q-25 11 -44.5 24.5t-36.5 33.5q-17 -20 -37 -33.5t-45 -24.5l-29 28q33 15 61 40t50 55q21 -30 49 -55t61 -40z" />
    <glyph glyph-name="idieresis" unicode="&#xef;" horiz-adv-x="230" 
d="M83 0v453h64v-453h-64zM208 573q0 -5 -3.5 -12.5t-9 -14t-11.5 -11t-11 -4.5t-11 4.5t-11.5 11t-9 14t-3.5 12.5q0 6 3.5 13t9 14t11.5 11.5t11 4.5t11 -4.5t11.5 -11.5t9 -14t3.5 -13zM92 573q0 -5 -3.5 -12.5t-9 -14t-12 -11t-11.5 -4.5t-11 4.5t-11.5 11t-9.5 14
t-4 12.5q0 6 4 13t9.5 14t11.5 11.5t11 4.5t11.5 -4.5t12 -11.5t9 -14t3.5 -13z" />
    <glyph glyph-name="ntilde" unicode="&#xf1;" horiz-adv-x="498" 
d="M376 0v299q0 48 -32 78.5t-93 30.5q-59 0 -94 -30.5t-35 -78.5v-299h-63v453h57l2 -55q18 26 53 45.5t95 19.5q37 0 68.5 -11t55 -31t36.5 -49.5t13 -66.5v-305h-63zM354 572q-26 -18 -55 -28.5t-61 -12.5l-14 47q-23 -2 -49.5 -12.5t-48.5 -24.5l9 44q26 16 55 27.5
t61 13.5l13 -48q25 2 51 13t48 25z" />
    <glyph glyph-name="oacute" unicode="&#xf3;" horiz-adv-x="551" 
d="M514 226q0 -52 -18 -95t-50 -74.5t-75.5 -49t-94.5 -17.5t-94.5 17.5t-75.5 49t-50.5 74.5t-18.5 95t18.5 95.5t50.5 75t75.5 49t94.5 17.5t94.5 -17.5t75.5 -49t50 -75t18 -95.5zM450 226q0 40 -13.5 73t-37.5 57t-55.5 37.5t-67.5 13.5q-37 0 -69 -13.5t-55.5 -37.5
t-37 -57t-13.5 -73t13.5 -73t37 -57t55.5 -37t69 -13q36 0 67.5 13t55.5 37t37.5 57t13.5 73zM395 598q-32 -26 -67.5 -42t-73.5 -26l-31 30q43 12 86 34.5t75 54.5l11 -51v0z" />
    <glyph glyph-name="ograve" unicode="&#xf2;" horiz-adv-x="551" 
d="M514 226q0 -52 -18 -95t-50 -74.5t-75.5 -49t-94.5 -17.5t-94.5 17.5t-75.5 49t-50.5 74.5t-18.5 95t18.5 95.5t50.5 75t75.5 49t94.5 17.5t94.5 -17.5t75.5 -49t50 -75t18 -95.5zM450 226q0 40 -13.5 73t-37.5 57t-55.5 37.5t-67.5 13.5q-37 0 -69 -13.5t-55.5 -37.5
t-37 -57t-13.5 -73t13.5 -73t37 -57t55.5 -37t69 -13q36 0 67.5 13t55.5 37t37.5 57t13.5 73zM298 530q-38 10 -73.5 26t-67.5 42l11 51q32 -32 75 -54.5t86 -34.5z" />
    <glyph glyph-name="ocircumflex" unicode="&#xf4;" horiz-adv-x="551" 
d="M514 226q0 -52 -18 -95t-50 -74.5t-75.5 -49t-94.5 -17.5t-94.5 17.5t-75.5 49t-50.5 74.5t-18.5 95t18.5 95.5t50.5 75t75.5 49t94.5 17.5t94.5 -17.5t75.5 -49t50 -75t18 -95.5zM450 226q0 40 -13.5 73t-37.5 57t-55.5 37.5t-67.5 13.5q-37 0 -69 -13.5t-55.5 -37.5
t-37 -57t-13.5 -73t13.5 -73t37 -57t55.5 -37t69 -13q36 0 67.5 13t55.5 37t37.5 57t13.5 73zM357 531q-25 11 -44.5 24.5t-36.5 33.5q-17 -20 -37.5 -33.5t-44.5 -24.5l-29 28q33 15 61 40t50 55q21 -30 49 -55t61 -40z" />
    <glyph glyph-name="odieresis" unicode="&#xf6;" horiz-adv-x="551" 
d="M514 226q0 -52 -18 -95t-50 -74.5t-75.5 -49t-94.5 -17.5t-94.5 17.5t-75.5 49t-50.5 74.5t-18.5 95t18.5 95.5t50.5 75t75.5 49t94.5 17.5t94.5 -17.5t75.5 -49t50 -75t18 -95.5zM450 226q0 40 -13.5 73t-37.5 57t-55.5 37.5t-67.5 13.5q-37 0 -69 -13.5t-55.5 -37.5
t-37 -57t-13.5 -73t13.5 -73t37 -57t55.5 -37t69 -13q36 0 67.5 13t55.5 37t37.5 57t13.5 73zM370 573q0 -5 -3.5 -12.5t-8.5 -14t-11 -11t-11 -4.5t-11.5 4.5t-12 11t-9 14t-3.5 12.5q0 6 3.5 13t9 14t12 11.5t11.5 4.5t11 -4.5t11 -11.5t8.5 -14t3.5 -13zM254 573
q0 -5 -3.5 -12.5t-9 -14t-12 -11t-11.5 -4.5t-11 4.5t-11 11t-9 14t-4 12.5q0 6 4 13t9 14t11 11.5t11 4.5t11.5 -4.5t12 -11.5t9 -14t3.5 -13z" />
    <glyph glyph-name="otilde" unicode="&#xf5;" horiz-adv-x="551" 
d="M514 226q0 -52 -18 -95t-50 -74.5t-75.5 -49t-94.5 -17.5t-94.5 17.5t-75.5 49t-50.5 74.5t-18.5 95t18.5 95.5t50.5 75t75.5 49t94.5 17.5t94.5 -17.5t75.5 -49t50 -75t18 -95.5zM450 226q0 40 -13.5 73t-37.5 57t-55.5 37.5t-67.5 13.5q-37 0 -69 -13.5t-55.5 -37.5
t-37 -57t-13.5 -73t13.5 -73t37 -57t55.5 -37t69 -13q36 0 67.5 13t55.5 37t37.5 57t13.5 73zM384 572q-25 -18 -54.5 -28.5t-61.5 -12.5l-13 47q-24 -2 -50.5 -12.5t-48.5 -24.5l10 44q26 16 55 27.5t60 13.5l14 -48q24 2 50 13t48 25z" />
    <glyph glyph-name="uacute" unicode="&#xfa;" horiz-adv-x="498" 
d="M382 0l-2 55q-18 -26 -53 -45.5t-95 -19.5q-37 0 -68.5 11t-55 31t-36.5 49.5t-13 66.5v305h63v-299q0 -48 32 -78.5t93 -30.5q59 0 94 30.5t35 78.5v299h63v-453h-57zM380 598q-32 -26 -67.5 -42t-73.5 -26l-31 30q43 12 86 34.5t75 54.5l11 -51v0z" />
    <glyph glyph-name="ugrave" unicode="&#xf9;" horiz-adv-x="498" 
d="M382 0l-2 55q-18 -26 -53 -45.5t-95 -19.5q-37 0 -68.5 11t-55 31t-36.5 49.5t-13 66.5v305h63v-299q0 -48 32 -78.5t93 -30.5q59 0 94 30.5t35 78.5v299h63v-453h-57zM267 530q-38 10 -73.5 26t-67.5 42l11 51q32 -32 75 -54.5t86 -34.5z" />
    <glyph glyph-name="ucircumflex" unicode="&#xfb;" horiz-adv-x="498" 
d="M382 0l-2 55q-18 -26 -53 -45.5t-95 -19.5q-37 0 -68.5 11t-55 31t-36.5 49.5t-13 66.5v305h63v-299q0 -48 32 -78.5t93 -30.5q59 0 94 30.5t35 78.5v299h63v-453h-57zM335 531q-25 11 -44.5 24.5t-36.5 33.5q-17 -20 -37.5 -33.5t-44.5 -24.5l-29 28q33 15 61 40t50 55
q21 -30 49 -55t61 -40z" />
    <glyph glyph-name="udieresis" unicode="&#xfc;" horiz-adv-x="498" 
d="M382 0l-2 55q-18 -26 -53 -45.5t-95 -19.5q-37 0 -68.5 11t-55 31t-36.5 49.5t-13 66.5v305h63v-299q0 -48 32 -78.5t93 -30.5q59 0 94 30.5t35 78.5v299h63v-453h-57zM345 573q0 -5 -3.5 -12.5t-9 -14t-11.5 -11t-11 -4.5t-11 4.5t-11.5 11t-9 14t-3.5 12.5q0 6 3.5 13
t9 14t11.5 11.5t11 4.5t11 -4.5t11.5 -11.5t9 -14t3.5 -13zM229 573q0 -5 -3.5 -12.5t-9 -14t-12 -11t-11.5 -4.5t-11 4.5t-11.5 11t-9.5 14t-4 12.5q0 6 4 13t9.5 14t11.5 11.5t11 4.5t11.5 -4.5t12 -11.5t9 -14t3.5 -13z" />
    <glyph glyph-name="dagger" unicode="&#x2020;" horiz-adv-x="338" 
d="M199 408l-11 -634h-39l-10 634l-128 -13v64l127 -13l-2 111h66l-2 -111l126 13v-64z" />
    <glyph glyph-name="degree" unicode="&#xb0;" horiz-adv-x="245" 
d="M218 556q0 -20 -7.5 -37t-20.5 -29.5t-30.5 -20t-36.5 -7.5q-20 0 -37 7.5t-30.5 20t-21 29.5t-7.5 37q0 19 7.5 36.5t21 30.5t30.5 20.5t37 7.5q19 0 36.5 -7.5t30.5 -20.5t20.5 -30.5t7.5 -36.5zM180 556q0 26 -16 42t-41 16q-26 0 -42 -16t-16 -42q0 -25 16 -41
t42 -16q25 0 41 16t16 41z" />
    <glyph glyph-name="cent" unicode="&#xa2;" horiz-adv-x="457" 
d="M409 552q-26 18 -58.5 27t-67.5 9q-38 0 -71.5 -13t-58 -37t-38.5 -57.5t-14 -73.5t14.5 -73t39 -57t58 -37t72.5 -13q35 0 66.5 7t66.5 26l-16 -64q-20 -11 -46.5 -17t-55.5 -8v-89h-42v90q-45 3 -85.5 21t-70.5 48.5t-47.5 72.5t-17.5 93t17.5 92.5t47.5 72.5t70 49
t86 22v94h42v-94q38 -2 68.5 -11.5t53.5 -23.5z" />
    <glyph glyph-name="sterling" unicode="&#xa3;" horiz-adv-x="424" 
d="M380 -11q-32 12 -70 18.5t-78 6.5q-42 0 -81.5 -7t-63.5 -15l-49 26q27 42 40.5 96t13.5 131v52h-72v42h72v91q0 111 51.5 164t141.5 53q21 0 40.5 -4t34.5 -11l-13 -54q-14 7 -33 11t-39 4q-56 0 -88 -40.5t-32 -106.5v-107h153l-6 -42h-147v-57q0 -67 -9.5 -112.5
t-23.5 -71.5q20 5 51.5 8.5t60.5 3.5q36 0 78 -5.5t77 -18.5z" />
    <glyph glyph-name="section" unicode="&#xa7;" horiz-adv-x="453" 
d="M400 -65q0 -28 -11 -56t-32.5 -50.5t-55 -36.5t-78.5 -14q-47 0 -81.5 10t-59.5 26l13 58q25 -17 57.5 -27t68.5 -10q30 0 52.5 9t36.5 23t21 32t7 36q0 17 -5 35t-20 33l-254 261l34 123q-36 39 -36 104q0 28 11 56t33 50.5t55.5 36.5t78.5 14q46 0 81 -10t60 -26
l-14 -58q-24 17 -57 27t-69 10q-30 0 -52 -9t-36.5 -23t-21 -32t-6.5 -36t6 -36.5t19 -31.5l254 -261l-35 -123q36 -39 36 -104zM126 366l-21 -75l225 -230l23 76z" />
    <glyph glyph-name="bullet" unicode="&#x2022;" horiz-adv-x="374" 
d="M320 277q0 -29 -10 -53t-28 -41.5t-42.5 -27t-52.5 -9.5t-52.5 9.5t-42.5 27t-28 41.5t-10 53t10 53t28 41.5t42.5 27.5t52.5 10t52.5 -10t42.5 -27.5t28 -41.5t10 -53z" />
    <glyph glyph-name="paragraph" unicode="&#xb6;" horiz-adv-x="408" 
d="M306 590v-642q0 -35 -10 -65t-26.5 -53t-38.5 -38.5t-47 -21.5l-41 40q48 11 73.5 46t25.5 97v360h-12q-36 0 -69 10.5t-58.5 31t-40.5 51t-15 71.5t15 72t40.5 52t59 31.5t69.5 10.5h142v-53h-67z" />
    <glyph glyph-name="germandbls" unicode="&#xdf;" horiz-adv-x="523" 
d="M490 118q0 -57 -41.5 -92.5t-113.5 -35.5q-42 0 -75.5 11t-53.5 26v63q26 -20 57 -33t73 -13q38 0 64.5 19t26.5 52q0 32 -23 52.5t-61 34.5q-63 23 -97 55t-34 86q0 55 41.5 88t105.5 33q4 11 6.5 27t2.5 30q0 25 -7 50t-21.5 45.5t-36.5 33t-52 12.5t-52.5 -12.5
t-37.5 -34.5t-22 -51.5t-7 -62.5v-501h-63v486q0 116 49.5 173t132.5 57q41 0 74 -14.5t56.5 -40.5t36.5 -64t13 -84q0 -24 -5.5 -51t-11.5 -45q-68 0 -104.5 -17.5t-36.5 -54.5q0 -30 20.5 -48t58.5 -32q65 -23 101.5 -57t36.5 -90z" />
    <glyph glyph-name="registered" unicode="&#xae;" horiz-adv-x="452" 
d="M415 462q0 -41 -14.5 -75.5t-40 -59.5t-60 -39t-74.5 -14t-74.5 14t-60 39t-40 59.5t-14.5 75.5t14.5 75.5t40 59t60 38.5t74.5 14t74.5 -14t60 -38.5t40 -59t14.5 -75.5zM381 462q0 34 -12 63t-32.5 49.5t-49 32t-61.5 11.5t-61.5 -11.5t-49.5 -32t-32.5 -49.5
t-11.5 -63q0 -35 11.5 -63.5t32.5 -49t49.5 -32t61.5 -11.5t61.5 11.5t49 32t32.5 49t12 63.5zM293 346l-65 95h-31v-94h-36v228h68q29 0 50.5 -18.5t21.5 -47.5q0 -20 -10 -35.5t-26 -23.5l58 -83zM265 509q0 15 -10.5 24.5t-29.5 9.5h-28v-69h28q19 0 29.5 9.5t10.5 25.5z
" />
    <glyph glyph-name="copyright" unicode="&#xa9;" horiz-adv-x="601" 
d="M565 250q0 -58 -20.5 -106t-56 -82.5t-84 -54t-104.5 -19.5q-55 0 -103 19.5t-84 54t-56.5 82.5t-20.5 106t20.5 106.5t56.5 83t84 53.5t103 19q56 0 104.5 -19t84 -53.5t56 -83t20.5 -106.5zM523 250q0 48 -16.5 89t-46.5 71t-71 47t-89 17t-89 -17t-70.5 -47t-46 -71
t-16.5 -89t16.5 -89t46 -71t70.5 -47t89 -17t89 17t71 47t46.5 71t16.5 89zM399 321q-35 22 -79 22q-40 0 -68.5 -26t-28.5 -68q0 -44 28.5 -71.5t68.5 -27.5q20 0 40.5 5.5t43.5 22.5l-13 -55q-13 -8 -32.5 -14t-40.5 -6q-29 0 -56 10.5t-47.5 30t-32.5 46.5t-12 59
q0 31 12 57.5t32.5 45t47.5 29t56 10.5t52 -8t38 -19z" />
    <glyph glyph-name="trademark" unicode="&#x2122;" horiz-adv-x="416" 
d="M350 453l-9 119l-60 -120h-11l-58 118l-9 -117h-27l14 185h19l68 -139l67 139h20l14 -185h-28zM107 612v-159h-29v159h-56v26h141v-26h-56z" />
    <glyph glyph-name="acute" unicode="&#xb4;" 
d="M277 596q-37 -32 -79 -50.5t-87 -29.5l-36 35q51 14 101.5 40t87.5 64l13 -59v0z" />
    <glyph glyph-name="dieresis" unicode="&#xa8;" 
d="M290 566q0 -6 -4 -14.5t-10.5 -16.5t-13.5 -13.5t-13 -5.5t-13.5 5.5t-13.5 13.5t-10.5 16.5t-4.5 14.5t4.5 15t10.5 17t13.5 13.5t13.5 5.5t13 -5.5t13.5 -13.5t10.5 -17t4 -15zM153 566q0 -6 -4.5 -14.5t-10.5 -16.5t-13.5 -13.5t-13.5 -5.5q-5 0 -12.5 5.5t-14 13.5
t-11 16.5t-4.5 14.5t4.5 15t11 17t14 13.5t12.5 5.5q6 0 13.5 -5.5t13.5 -13.5t10.5 -17t4.5 -15z" />
    <glyph glyph-name="notequal" horiz-adv-x="624" 
d="M643 647q-14 7 -33 11t-39 4q-54 0 -83.5 -40t-29.5 -101v-68h143l-12 -52h-131v-401h-64v401h-241v-401h-64v401h-72v52h72v34q0 52 14.5 92t40 67t61 40.5t78.5 13.5q32 0 55.5 -6t40.5 -16l-13 -54q-14 8 -37.5 15t-51.5 7q-55 0 -89.5 -40.5t-34.5 -106.5v-46h241v51
q0 105 49 158.5t138 53.5q21 0 40.5 -4t34.5 -11z" />
    <glyph glyph-name="AE" unicode="&#xc6;" horiz-adv-x="800" 
d="M414 0v184h-219l-107 -184h-68l370 638h356v-58h-265v-230h217v-58h-217v-234h300v-58h-367zM413 579l-29 -58.5t-31 -57.5l-129 -224h190v226v57.5t1 55.5z" />
    <glyph glyph-name="Oslash" unicode="&#xd8;" horiz-adv-x="752" 
d="M710 320q0 -75 -27.5 -136t-73.5 -104.5t-106.5 -67t-126.5 -23.5q-53 0 -101.5 15t-90.5 43l-60 -74l-32 27l59 72q-50 45 -79.5 107.5t-29.5 140.5q0 74 27.5 134.5t73.5 104t106.5 67t126.5 23.5q53 0 102 -15t91 -43l59 73l32 -27l-58 -72q49 -43 78.5 -105
t29.5 -140zM642 320q0 61 -21.5 111t-58.5 85l-339 -420q68 -48 153 -48q52 0 100 19.5t85 55t59 85.5t22 112zM530 543q-34 23 -73 35.5t-81 12.5q-53 0 -101 -19.5t-84.5 -54.5t-58.5 -85.5t-22 -111.5q0 -62 22 -112t59 -86l339 421v0z" />
    <glyph glyph-name="infinity" horiz-adv-x="815" 
d="M669 0v401h-211v-401h-64v401h-241v-401h-64v401h-72v52h72v34q0 52 14.5 92t40 67t61 40.5t78.5 13.5q32 0 55.5 -6t40.5 -16l-13 -54q-14 8 -37.5 15t-51.5 7q-55 0 -89.5 -40.5t-34.5 -106.5v-46h241v50q0 52 14.5 92t40 67t61 40.5t78.5 13.5q32 0 55.5 -6t40.5 -16
l-13 -54q-14 8 -37.5 15t-51.5 7q-55 0 -89.5 -40.5t-34.5 -106.5v-62h274v-453h-63z" />
    <glyph glyph-name="plusminus" unicode="&#xb1;" horiz-adv-x="855" 
d="M763 -13q-13 4 -27 12t-25 21.5t-18.5 33.5t-7.5 47v545q-13 8 -32.5 12t-48.5 4q-31 0 -57.5 -11.5t-46 -33t-31 -52t-11.5 -68.5v-44h112l-12 -52h-100v-401h-64v401h-241v-401h-64v401h-72v52h72v34q0 52 14.5 92t40 67t61 40.5t78.5 13.5q32 0 55.5 -6t40.5 -16
l-13 -54q-14 8 -37.5 15t-51.5 7q-55 0 -89.5 -40.5t-34.5 -106.5v-46h241v32q0 54 16.5 97t45.5 72.5t69 45.5t87 16q43 0 77 -9.5t60 -30.5v-568q0 -32 17 -52.5t41 -25.5z" />
    <glyph glyph-name="lessequal" horiz-adv-x="351" 
d="M227 186l-177 177l177 177l41 -41l-135 -136l135 -136zM53 0v55h232v-55h-232z" />
    <glyph glyph-name="greaterequal" horiz-adv-x="351" 
d="M125 186l-41 41l135 136l-135 136l41 41l177 -177zM67 0v55h232v-55h-232z" />
    <glyph glyph-name="yen" unicode="&#xa5;" horiz-adv-x="578" 
d="M379 376h90v-42h-120l-28 -39v-18h148v-42h-148v-235h-66v235h-152v42h152v17l-27 40h-125v42h94l-185 262h75l138 -195q17 -23 34 -48.5l32 -48.5h2l32.5 48.5l33.5 48.5l139 195h68z" />
    <glyph glyph-name="mu" unicode="&#xb5;" horiz-adv-x="550" 
d="M39 0v453h472v-453h-472zM485 388h-395l241 -178q-44 -17 -67.5 -46.5t-23.5 -55.5q0 -32 14.5 -51t37.5 -32h193v363zM254 25q-25 11 -38 26.5t-22 34.5l-129 279v-340h189v0z" />
    <glyph glyph-name="partialdiff" horiz-adv-x="550" 
d="M39 0v453h472v-453h-472zM485 388h-395l241 -178q-44 -17 -67.5 -46.5t-23.5 -55.5q0 -32 14.5 -51t37.5 -32h193v363zM254 25q-25 11 -38 26.5t-22 34.5l-129 279v-340h189v0z" />
    <glyph glyph-name="summation" horiz-adv-x="550" 
d="M39 0v453h472v-453h-472zM485 388h-395l241 -178q-44 -17 -67.5 -46.5t-23.5 -55.5q0 -32 14.5 -51t37.5 -32h193v363zM254 25q-25 11 -38 26.5t-22 34.5l-129 279v-340h189v0z" />
    <glyph glyph-name="product" horiz-adv-x="452" 
d="M415 462q0 -41 -14.5 -75.5t-40 -59.5t-60 -39t-74.5 -14t-74.5 14t-60 39t-40 59.5t-14.5 75.5t14.5 75.5t40 59t60 38.5t74.5 14t74.5 -14t60 -38.5t40 -59t14.5 -75.5zM381 462q0 34 -12 63t-32.5 49.5t-49 32t-61.5 11.5t-61.5 -11.5t-49.5 -32t-32.5 -49.5
t-11.5 -63q0 -35 11.5 -63.5t32.5 -49t49.5 -32t61.5 -11.5t61.5 11.5t49 32t32.5 49t12 63.5zM311 509q0 -30 -21.5 -49t-50.5 -19h-31v-94h-36v228h67q29 0 50.5 -18.5t21.5 -47.5zM276 509q0 15 -11 24.5t-30 9.5h-27v-69h27q19 0 30 9.5t11 25.5z" />
    <glyph glyph-name="pi" horiz-adv-x="550" 
d="M39 0v453h472v-453h-472zM485 388h-395l241 -178q-44 -17 -67.5 -46.5t-23.5 -55.5q0 -32 14.5 -51t37.5 -32h193v363zM254 25q-25 11 -38 26.5t-22 34.5l-129 279v-340h189v0z" />
    <glyph glyph-name="integral" horiz-adv-x="550" 
d="M39 0v453h472v-453h-472zM485 388h-395l241 -178q-44 -17 -67.5 -46.5t-23.5 -55.5q0 -32 14.5 -51t37.5 -32h193v363zM254 25q-25 11 -38 26.5t-22 34.5l-129 279v-340h189v0z" />
    <glyph glyph-name="ordfeminine" unicode="&#xaa;" horiz-adv-x="364" 
d="M316 271q-20 4 -35 17.5t-21 33.5q-15 -23 -44 -37t-61 -14q-52 0 -85 31.5t-33 77.5q0 25 9.5 44.5t25.5 34t37 22.5t43 10l97 10v32q0 31 -21.5 49.5t-60.5 18.5q-26 0 -52 -7.5t-45 -21.5l-13 47q23 16 52 23t60 7q60 0 98.5 -31t38.5 -90v-163q0 -26 14 -39.5
t34 -17.5zM227 151q0 -6 -4 -14.5t-10 -16.5t-13 -13.5t-13 -5.5t-13 5.5t-13 13.5t-10.5 16.5t-4.5 14.5t4.5 15t10.5 17t13 13.5t13 5.5t13 -5.5t13 -13.5t10 -17t4 -15zM249 456l-89 -9q-30 -4 -49.5 -22.5t-19.5 -47.5q0 -27 19 -44.5t47 -17.5q16 0 32 6t29.5 18
t22 29.5t8.5 39.5v48z" />
    <glyph glyph-name="ordmasculine" unicode="&#xba;" horiz-adv-x="455" 
d="M420 460q0 -41 -14.5 -76t-40.5 -60t-61 -39t-76 -14t-76.5 14t-61.5 39t-40.5 60t-14.5 76t14.5 76t40.5 60t61.5 39t76.5 14t76 -14t61 -39t40.5 -60t14.5 -76zM269 151q0 -6 -4 -14.5t-10.5 -16.5t-13.5 -13.5t-13 -5.5t-13 5.5t-13 13.5t-10.5 16.5t-4.5 14.5t4.5 15
t10.5 17t13 13.5t13 5.5t13 -5.5t13.5 -13.5t10.5 -17t4 -15zM364 460q0 31 -10.5 57t-29 45t-43.5 29.5t-53 10.5q-29 0 -53.5 -10.5t-43.5 -29.5t-29.5 -45t-10.5 -57t10.5 -57t29.5 -45t43.5 -29.5t53.5 -10.5q28 0 53 10.5t43.5 29.5t29 45t10.5 57z" />
    <glyph glyph-name="Omega" horiz-adv-x="550" 
d="M39 0v453h472v-453h-472zM485 388h-395l241 -178q-44 -17 -67.5 -46.5t-23.5 -55.5q0 -32 14.5 -51t37.5 -32h193v363zM254 25q-25 11 -38 26.5t-22 34.5l-129 279v-340h189v0z" />
    <glyph glyph-name="ae" unicode="&#xe6;" horiz-adv-x="750" 
d="M713 294q0 -18 -3 -31l-37 -37h-303q-2 -34 10 -66.5t35.5 -57.5t57.5 -40.5t76 -15.5q41 0 75 10.5t67 34.5l-18 -70q-26 -15 -57.5 -23t-73.5 -8q-63 0 -114.5 28t-83.5 76q-21 -51 -64.5 -77.5t-95.5 -26.5q-33 0 -60.5 10t-46.5 28t-29.5 42.5t-10.5 53.5
q0 33 12 58.5t32.5 42.5t47.5 27t58 13l116 11v42q0 42 -28 66t-79 24q-32 0 -64.5 -9.5t-55.5 -24.5l-13 53q26 18 62 27t74 9q56 0 97 -24t55 -69q30 44 75.5 68.5t95.5 24.5q46 0 82 -14.5t60 -38.5t36.5 -54.5t12.5 -61.5zM649 291q0 20 -8 40.5t-23.5 37.5t-38.5 28
t-54 11q-28 0 -53 -11t-45.5 -29t-34 -41.5t-17.5 -48.5h273q1 4 1 13zM303 223l-106 -10q-48 -5 -73.5 -28.5t-25.5 -61.5q0 -35 25 -57t61 -22q20 0 41 8.5t38.5 23.5t28.5 36.5t11 48.5v62z" />
    <glyph glyph-name="oslash" unicode="&#xf8;" horiz-adv-x="547" 
d="M514 226q0 -52 -18 -95t-50 -74.5t-75.5 -49t-94.5 -17.5q-38 0 -72 10t-63 28l-44 -55l-31 26l43 54q-33 32 -52.5 75.5t-19.5 97.5q0 52 18.5 95.5t50.5 75t75.5 49t94.5 17.5q75 0 132 -37l44 54l31 -26l-43 -53q35 -32 54.5 -76.5t19.5 -98.5zM450 226
q0 38 -12.5 70.5t-35.5 56.5l-224 -279q44 -28 98 -28q36 0 67.5 13t55.5 37t37.5 57t13.5 73zM371 379q-42 28 -95 28q-37 0 -69 -13.5t-55.5 -37.5t-37 -57t-13.5 -73q0 -38 12.5 -70t33.5 -55l224 278v0z" />
    <glyph glyph-name="questiondown" unicode="&#xbf;" horiz-adv-x="383" 
d="M256 594q0 -6 -5 -15.5t-12 -18t-15.5 -14.5t-14.5 -6q-7 0 -15 6t-15 14.5t-12 18t-5 15.5q0 7 5 16.5t12 18t15 14.5t15 6q6 0 14.5 -6t15.5 -14.5t12 -18t5 -16.5zM356 -4q-22 -21 -56 -35t-78 -14q-39 0 -72.5 11.5t-58 33.5t-38 54t-13.5 72q0 51 27.5 92t66.5 82
q29 30 42.5 61.5t13.5 67.5q0 17 -1 34t-4 30l54 -14q3 -12 5.5 -27t2.5 -31q0 -48 -17.5 -89t-48.5 -73q-32 -32 -53.5 -64t-21.5 -76q0 -21 8 -40.5t23 -34t36.5 -23.5t47.5 -9q39 0 68.5 14t52.5 37l14 -59v0z" />
    <glyph glyph-name="exclamdown" unicode="&#xa1;" horiz-adv-x="236" 
d="M163 594q0 -6 -5 -15.5t-12 -18t-15.5 -14.5t-14.5 -6t-14.5 6t-15.5 14.5t-12 18t-5 15.5q0 7 5 16.5t12 18t15.5 14.5t14.5 6t14.5 -6t15.5 -14.5t12 -18t5 -16.5zM80 -42l11 526l53 -14l11 -512h-75z" />
    <glyph glyph-name="logicalnot" unicode="&#xac;" horiz-adv-x="508" 
d="M387 143v107h-343v54h400v-161h-57z" />
    <glyph glyph-name="radical" horiz-adv-x="574" 
d="M482 658l-282 -667h-23l-106 247h-51l9 60h82l55 -126l12.5 -31.5l11.5 -31.5h2l39 97l43 103l170 403h117v-54h-79z" />
    <glyph glyph-name="florin" unicode="&#x192;" horiz-adv-x="410" 
d="M387 590q-14 5 -47 5q-50 0 -86 -30t-49 -94l-3 -18h137l-11 -42h-133l-83 -463q-6 -37 -21 -67t-35.5 -52.5t-45 -37.5t-50.5 -21l-38 38q47 11 82 48t46 97l81 458h-72l7 42h73l2 12q17 97 69.5 140.5t133.5 43.5q33 0 56 -6z" />
    <glyph glyph-name="approxequal" horiz-adv-x="463" 
d="M415 363q-41 -48 -115 -48q-22 0 -39 5.5t-32 13.5l-34.5 15.5t-35.5 7.5q-30 0 -54 -12t-44 -33l-13 51q43 49 116 49q22 0 38.5 -6t32.5 -14l33 -15t36 -7q31 0 55.5 12t43.5 33l12 -52v0zM415 191q-41 -48 -115 -48q-22 0 -39 5.5t-32 13.5l-34.5 15.5t-35.5 7.5
q-30 0 -54 -12t-44 -33l-13 51q43 49 116 49q22 0 38.5 -6t32.5 -14l33 -15t36 -7q31 0 55.5 12t43.5 33l12 -52v0z" />
    <glyph glyph-name="Delta" horiz-adv-x="550" 
d="M39 0v453h472v-453h-472zM485 388h-395l241 -178q-44 -17 -67.5 -46.5t-23.5 -55.5q0 -32 14.5 -51t37.5 -32h193v363zM254 25q-25 11 -38 26.5t-22 34.5l-129 279v-340h189v0z" />
    <glyph glyph-name="guillemotleft" unicode="&#xab;" horiz-adv-x="415" 
d="M354 108q-26 47 -67.5 92t-92.5 77q51 33 92.5 77.5t67.5 91.5l36 -36q-18 -38 -46.5 -72.5t-60.5 -60.5q32 -26 60.5 -60.5t46.5 -72.5zM164 108q-26 47 -67.5 92t-91.5 77q50 33 91.5 77.5t67.5 91.5l36 -36q-18 -38 -46.5 -72.5t-60.5 -60.5q32 -26 60.5 -60.5
t46.5 -72.5z" />
    <glyph glyph-name="guillemotright" unicode="&#xbb;" horiz-adv-x="415" 
d="M411 277q-50 -32 -92 -77t-68 -92l-36 36q18 38 46 72.5t60 60.5q-32 26 -60 60.5t-46 72.5l36 36q26 -47 68 -91.5t92 -77.5zM221 277q-51 -32 -92.5 -77t-67.5 -92l-36 36q18 38 46.5 72.5t60.5 60.5q-32 26 -60.5 60.5t-46.5 72.5l36 36q26 -47 67.5 -91.5t92.5 -77.5
z" />
    <glyph glyph-name="ellipsis" unicode="&#x2026;" horiz-adv-x="513" 
d="M468 45q0 -7 -5 -16.5t-12.5 -18t-15.5 -14.5t-15 -6q-6 0 -14.5 6t-15.5 14.5t-12 18t-5 16.5t5 16.5t12 18t15.5 14.5t14.5 6q7 0 15 -6t15.5 -14.5t12.5 -18t5 -16.5zM303 45q0 -7 -5 -16.5t-12 -18t-15.5 -14.5t-14.5 -6t-14.5 6t-15.5 14.5t-12 18t-5 16.5t5 16.5
t12 18t15.5 14.5t14.5 6t14.5 -6t15.5 -14.5t12 -18t5 -16.5zM139 45q0 -7 -5 -16.5t-12 -18t-15.5 -14.5t-14.5 -6t-14.5 6t-15.5 14.5t-12 18t-5 16.5t5 16.5t12 18t15.5 14.5t14.5 6t14.5 -6t15.5 -14.5t12 -18t5 -16.5z" />
    <glyph glyph-name="nonbreakingspace" horiz-adv-x="119" 
 />
    <glyph glyph-name="Agrave" unicode="&#xc0;" horiz-adv-x="601" 
d="M507 0l-73 179h-270l-72 -179h-66l264 651h21l264 -651h-68zM335 430q-9 22 -17.5 47t-16.5 51h-2q-8 -26 -17 -51t-18 -47l-77 -196h224zM327 716q-45 11 -87 29.5t-79 50.5l13 59q37 -38 87.5 -64t101.5 -40z" />
    <glyph glyph-name="Atilde" unicode="&#xc3;" horiz-adv-x="601" 
d="M507 0l-73 179h-270l-72 -179h-66l264 651h21l264 -651h-68zM335 430q-9 22 -17.5 47t-16.5 51h-2q-8 -26 -17 -51t-18 -47l-77 -196h224zM426 765q-29 -21 -63.5 -33.5t-72.5 -14.5l-16 55q-28 -2 -59 -14.5t-57 -29.5l11 52q30 19 64.5 32.5t71.5 15.5l16 -56
q29 2 59.5 15t56.5 29z" />
    <glyph glyph-name="Otilde" unicode="&#xd5;" horiz-adv-x="752" 
d="M710 320q0 -75 -27.5 -136t-73.5 -104.5t-106.5 -67t-126.5 -23.5t-126.5 23.5t-106.5 67t-73.5 104.5t-27.5 136q0 74 27.5 134.5t73.5 104t106.5 67t126.5 23.5t126.5 -23.5t106.5 -67t73.5 -104t27.5 -134.5zM642 320q0 61 -22 111.5t-59 85.5t-85 54.5t-100 19.5
q-53 0 -101 -19.5t-84.5 -54.5t-58.5 -85.5t-22 -111.5q0 -62 22 -112t58.5 -85.5t84.5 -55t101 -19.5q52 0 100 19.5t85 55t59 85.5t22 112zM499 765q-29 -21 -63.5 -33.5t-72.5 -14.5l-16 55q-28 -2 -59 -14.5t-57 -29.5l11 52q30 19 64.5 32.5t71.5 15.5l16 -56
q29 2 59.5 15t56.5 29z" />
    <glyph glyph-name="OE" unicode="&#x152;" horiz-adv-x="955" 
d="M568 0v49q-41 -29 -89.5 -44.5t-102.5 -15.5q-66 0 -126.5 23.5t-106.5 67t-73.5 104.5t-27.5 136q0 74 27.5 134.5t73.5 104t106.5 67t126.5 23.5q54 0 102.5 -15.5t89.5 -43.5v48h333v-58h-266v-230h218v-58h-218v-234h301v-58h-368zM568 514q-37 35 -87 56t-105 21
q-53 0 -101 -19.5t-84.5 -54.5t-58.5 -85.5t-22 -111.5q0 -62 22 -112t58.5 -85.5t84.5 -55t101 -19.5q55 0 105 20.5t87 56.5v389z" />
    <glyph glyph-name="oe" unicode="&#x153;" horiz-adv-x="896" 
d="M859 294q0 -8 -0.5 -16t-1.5 -15l-38 -37h-303q-2 -34 10 -66.5t36 -57.5t58 -40.5t76 -15.5q40 0 74 10.5t67 34.5l-18 -70q-26 -15 -57 -23t-74 -8q-67 0 -121.5 32t-83.5 88q-29 -55 -83.5 -87.5t-123.5 -32.5q-51 0 -94.5 17.5t-75.5 49t-50.5 74.5t-18.5 95
t18.5 95.5t50.5 75t75.5 49t94.5 17.5q69 0 123 -32.5t82 -86.5q29 56 80 87.5t107 31.5q47 0 82.5 -14.5t59.5 -38.5t36.5 -54.5t12.5 -61.5zM795 291q0 20 -8 40.5t-23.5 37.5t-38.5 28t-54 11q-28 0 -53 -11t-45 -29t-34 -41.5t-18 -48.5h273q1 4 1 13zM450 226
q0 40 -13.5 73t-37.5 57t-55.5 37.5t-67.5 13.5q-37 0 -69 -13.5t-55.5 -37.5t-37 -57t-13.5 -73t13.5 -73t37 -57t55.5 -37t69 -13q36 0 67.5 13t55.5 37t37.5 57t13.5 73z" />
    <glyph glyph-name="endash" unicode="&#x2013;" horiz-adv-x="588" 
d="M44 250v54h500v-54h-500z" />
    <glyph glyph-name="emdash" unicode="&#x2014;" horiz-adv-x="838" 
d="M44 250v54h750v-54h-750z" />
    <glyph glyph-name="quotedblleft" unicode="&#x201c;" horiz-adv-x="342" 
d="M314 708q-23 -28 -38 -58.5t-17 -52.5q5 -2 11.5 -6.5t12 -11t9.5 -13.5t4 -13q0 -8 -5 -17.5t-12.5 -18t-15.5 -14.5t-14 -6t-14 6t-15.5 14.5t-12.5 18t-5 17.5q0 14 7 34t18.5 42.5t26.5 44.5t31 39l29 -5v0zM159 708q-23 -28 -38 -58.5t-17 -52.5q10 -3 23.5 -17.5
t13.5 -27.5q0 -7 -5 -16.5t-12.5 -18t-15.5 -14.5t-14 -6t-14 6t-15.5 14t-12.5 17.5t-5 17.5q0 14 7 34.5t18.5 43t26.5 44t31 38.5l29 -4v0z" />
    <glyph glyph-name="quotedblright" unicode="&#x201d;" horiz-adv-x="342" 
d="M295 661q0 -14 -7 -34t-18.5 -42.5t-26.5 -44t-31 -38.5l-29 4q23 28 38 59t17 52q-5 1 -11.5 6t-12 11.5t-9.5 13.5t-4 13q0 7 5 17t12.5 18.5t15.5 14.5t14 6t14 -6t15.5 -14.5t12.5 -18t5 -17.5zM140 661q0 -14 -7 -34t-18.5 -42.5t-27 -44t-31.5 -38.5l-28 4
q23 28 37.5 58.5t17.5 52.5q-5 1 -11.5 6t-12 11.5t-9.5 13.5t-4 13q0 7 5 17t12.5 18.5t15.5 14.5t14 6t14 -6t15.5 -14.5t12.5 -18t5 -17.5z" />
    <glyph glyph-name="quoteleft" unicode="&#x2018;" horiz-adv-x="187" 
d="M159 708q-23 -29 -38 -59.5t-17 -51.5q10 -3 23.5 -17.5t13.5 -27.5q0 -7 -5 -16.5t-12.5 -18t-15.5 -14.5t-14 -6t-14 6t-15.5 14t-12.5 17.5t-5 17.5q0 14 7 34.5t18.5 43t26.5 44t31 38.5l29 -4v0z" />
    <glyph glyph-name="quoteright" unicode="&#x2019;" horiz-adv-x="187" 
d="M140 661q0 -14 -7 -34t-18.5 -42.5t-27 -44t-31.5 -38.5l-28 4q23 28 37.5 58.5t17.5 52.5q-5 1 -11.5 6t-12 11.5t-9.5 13.5t-4 13q0 7 5 17t12.5 18.5t15.5 14.5t14 6t14 -6t15.5 -14.5t12.5 -18t5 -17.5z" />
    <glyph glyph-name="divide" unicode="&#xf7;" horiz-adv-x="463" 
d="M272 399q0 -6 -4 -15t-10.5 -16.5t-13.5 -13t-13 -5.5t-13 5.5t-13.5 13t-10.5 16.5t-4 15t4 15t10.5 16.5t13.5 13t13 5.5t13 -5.5t13.5 -13t10.5 -16.5t4 -15zM44 250v54h374v-54h-374zM272 156q0 -6 -4 -15t-10.5 -16.5t-13.5 -13t-13 -5.5t-13 5.5t-13.5 13
t-10.5 16.5t-4 15t4 15t10.5 16.5t13.5 13t13 5.5t13 -5.5t13.5 -13t10.5 -16.5t4 -15z" />
    <glyph glyph-name="lozenge" horiz-adv-x="591" 
d="M290 65l-211 212l211 212l212 -212zM290 426l-149 -149l149 -149l150 149z" />
    <glyph glyph-name="ydieresis" unicode="&#xff;" horiz-adv-x="464" 
d="M263 39q-52 -122 -108.5 -185t-123.5 -87l-39 40q64 20 114 74.5t94 158.5l-175 413h66l97 -228l22.5 -55.5l22.5 -58.5h2l22 56.5l23 55.5l98 230h61zM326 570q0 -5 -3.5 -12.5t-9 -14.5t-11.5 -11.5t-11 -4.5t-11 4.5t-11.5 11.5t-9.5 14.5t-4 12.5t4 12.5t9.5 14
t11.5 11.5t11 5t11 -5t11.5 -11.5t9 -14t3.5 -12.5zM210 570q0 -5 -4 -12.5t-9.5 -14.5t-11.5 -11.5t-11 -4.5t-11 4.5t-11.5 11.5t-9.5 14.5t-4 12.5t4 12.5t9.5 14t11.5 11.5t11 5t11 -5t11.5 -11.5t9.5 -14t4 -12.5z" />
    <glyph glyph-name="Ydieresis" unicode="&#x178;" horiz-adv-x="578" 
d="M321 295v-295h-66v295l-243 343h74l138 -195l33 -48l33 -49h2l32 48.5t34 48.5l139 195h69zM397 766q0 -6 -4 -14.5t-10.5 -16.5t-13.5 -13.5t-13 -5.5t-13.5 5.5t-13.5 13.5t-10.5 16.5t-4.5 14.5t4.5 15t10.5 17t13.5 13.5t13.5 5.5t13 -5.5t13.5 -13.5t10.5 -17t4 -15
zM260 766q0 -6 -4.5 -14.5t-10.5 -16.5t-13.5 -13.5t-13.5 -5.5q-5 0 -12.5 5.5t-14 13.5t-11 16.5t-4.5 14.5t4.5 15t11 17t14 13.5t12.5 5.5q6 0 13.5 -5.5t13.5 -13.5t10.5 -17t4.5 -15z" />
    <glyph glyph-name="fraction" horiz-adv-x="604" 
d="M57 -19l-33 28l525 648l32 -27z" />
    <glyph glyph-name="currency" unicode="&#xa4;" horiz-adv-x="490" 
d="M408 80l-66 66q-21 -14 -45.5 -22.5t-51.5 -8.5q-28 0 -53 9t-45 24l-67 -67l-30 31l67 67q-33 42 -33 98q0 55 31 95l-33 33l-33 34l30 31l66 -66q20 17 45.5 26t54.5 9q28 0 53 -9t46 -24l65 65l30 -30l-65 -65q16 -21 25 -46t9 -53q0 -29 -9.5 -54.5t-26.5 -46.5
l67 -66zM368 277q0 25 -9.5 47t-26.5 38.5t-39.5 26t-47.5 9.5t-47 -9.5t-38.5 -26t-26 -38.5t-9.5 -47t9.5 -47.5t26 -39t38.5 -26t47 -9.5t47.5 9.5t39.5 26t26.5 39t9.5 47.5z" />
    <glyph glyph-name="guilsinglleft" unicode="&#x2039;" horiz-adv-x="226" 
d="M164 108q-26 47 -67.5 92t-91.5 77q50 33 91.5 77.5t67.5 91.5l36 -36q-18 -38 -46.5 -72.5t-60.5 -60.5q32 -26 60.5 -60.5t46.5 -72.5z" />
    <glyph glyph-name="guilsinglright" unicode="&#x203a;" horiz-adv-x="226" 
d="M221 277q-50 -32 -92 -77t-68 -92l-36 36q18 38 46.5 72.5t60.5 60.5q-32 26 -60.5 60.5t-46.5 72.5l36 36q26 -47 68 -91.5t92 -77.5z" />
    <glyph glyph-name="fi" horiz-adv-x="510" 
d="M364 0v401h-211v-401h-64v401h-72v52h72v50q0 52 14.5 92t40 67t61 40.5t78.5 13.5q32 0 55.5 -6t40.5 -16l-13 -54q-14 8 -37.5 15t-51.5 7q-55 0 -89.5 -40.5t-34.5 -106.5v-62h274v-453h-63z" />
    <glyph glyph-name="fl" horiz-adv-x="550" 
d="M458 -13q-13 4 -27 12t-25 21.5t-18.5 33.5t-7.5 47v545q-13 8 -32.5 12t-48.5 4q-31 0 -57.5 -11.5t-46 -33t-31 -52t-11.5 -68.5v-44h112l-12 -52h-100v-401h-64v401h-72v52h72v32q0 54 16.5 97t45.5 72.5t69 45.5t87 16q43 0 77 -9.5t60 -30.5v-568q0 -32 17 -52.5
t41 -25.5z" />
    <glyph glyph-name="daggerdbl" unicode="&#x2021;" horiz-adv-x="338" 
d="M190 -118l-2 -108h-39l-2 108l-136 -13v64l135 -13l-7 488l-128 -13v64l127 -13l-2 111h66l-2 -111l126 13v-64l-127 13l-8 -488l135 13v-64z" />
    <glyph glyph-name="periodcentered" unicode="&#xb7;" horiz-adv-x="187" 
d="M139 271q0 -7 -5 -16.5t-12 -18t-15.5 -14.5t-14.5 -6t-14.5 6t-15.5 14.5t-12 18t-5 16.5q0 6 5 15.5t12 18t15.5 14.5t14.5 6t14.5 -6t15.5 -14.5t12 -18t5 -15.5z" />
    <glyph glyph-name="periodcentered" unicode="&#x2219;" horiz-adv-x="187" 
d="M139 271q0 -7 -5 -16.5t-12 -18t-15.5 -14.5t-14.5 -6t-14.5 6t-15.5 14.5t-12 18t-5 16.5q0 6 5 15.5t12 18t15.5 14.5t14.5 6t14.5 -6t15.5 -14.5t12 -18t5 -15.5z" />
    <glyph glyph-name="quotesinglbase" unicode="&#x201a;" horiz-adv-x="187" 
d="M140 45q0 -14 -7 -34.5t-18.5 -43t-27 -44t-31.5 -38.5l-28 4q23 28 37.5 58.5t17.5 52.5q-11 3 -24 17.5t-13 27.5q0 7 5 16.5t12.5 18t15.5 14.5t14 6t14 -6t15.5 -14t12.5 -18t5 -17z" />
    <glyph glyph-name="quotedblbase" unicode="&#x201e;" horiz-adv-x="333" 
d="M292 45q0 -14 -7 -34.5t-19 -42.5t-27 -44t-31 -39l-28 5q22 28 37 58.5t18 51.5q-5 1 -11.5 6t-12 12t-9.5 14t-4 13q0 7 5 16.5t12.5 18t15.5 14.5t14 6t14 -6t15.5 -14t12.5 -18t5 -17zM137 45q0 -14 -7 -34.5t-19 -43t-27 -44t-31 -38.5l-28 4q22 28 37 58.5t18 52.5
q-11 3 -24 17.5t-13 27.5q0 7 5 16.5t12 18t15.5 14.5t14.5 6q5 0 13 -6t15.5 -14t13 -18t5.5 -17z" />
    <glyph glyph-name="perthousand" unicode="&#x2030;" horiz-adv-x="1043" 
d="M1003 125q0 -30 -10.5 -55t-28.5 -43t-42.5 -28t-53.5 -10t-53.5 10t-42.5 28t-28 43t-10 55q0 29 10 54t28 43t42.5 28t53.5 10t53.5 -10t42.5 -28t28.5 -43t10.5 -54zM309 514q0 -30 -10.5 -55t-28.5 -42.5t-42.5 -27.5t-53.5 -10t-53.5 10t-42.5 27.5t-28 42.5t-10 55
t10 55t28 42.5t42.5 27.5t53.5 10t53.5 -10t42.5 -27.5t28.5 -42.5t10.5 -55zM104 -19l-33 28l525 648l32 -27zM661 125q0 -30 -10.5 -55t-28.5 -43t-42.5 -28t-53.5 -10t-53.5 10t-42.5 28t-28 43t-10 55q0 29 10 54t28 43t42.5 28t53.5 10t53.5 -10t42.5 -28t28.5 -43
t10.5 -54zM950 125q0 39 -24.5 61.5t-57.5 22.5t-57 -22.5t-24 -61.5q0 -40 24 -63.5t57 -23.5t57.5 23.5t24.5 63.5zM255 514q0 40 -24 62.5t-57 22.5q-34 0 -57.5 -22.5t-23.5 -62.5t23.5 -63t57.5 -23q33 0 57 23t24 63zM608 125q0 39 -24 61.5t-58 22.5q-33 0 -57 -22.5
t-24 -61.5q0 -40 24 -63.5t57 -23.5q34 0 58 23.5t24 63.5z" />
    <glyph glyph-name="Acircumflex" unicode="&#xc2;" horiz-adv-x="601" 
d="M507 0l-73 179h-270l-72 -179h-66l264 651h21l264 -651h-68zM335 430q-9 22 -17.5 47t-16.5 51h-2q-8 -26 -17 -51t-18 -47l-77 -196h224zM396 716q-29 14 -52 30t-43 39q-20 -23 -43.5 -39t-52.5 -30l-34 34q38 17 71 46.5t59 64.5q25 -35 58 -64.5t72 -46.5z" />
    <glyph glyph-name="Ecircumflex" unicode="&#xca;" horiz-adv-x="459" 
d="M69 0v638h333v-58h-266v-230h218v-58h-218v-234h301v-58h-368zM340 716q-29 14 -52 30t-43 39q-20 -23 -43.5 -39t-52.5 -30l-34 34q38 17 71 46.5t59 64.5q25 -35 58 -64.5t72 -46.5z" />
    <glyph glyph-name="Aacute" unicode="&#xc1;" horiz-adv-x="601" 
d="M507 0l-73 179h-270l-72 -179h-66l264 651h21l264 -651h-68zM335 430q-9 22 -17.5 47t-16.5 51h-2q-8 -26 -17 -51t-18 -47l-77 -196h224zM436 796q-37 -32 -79 -50.5t-87 -29.5l-36 35q51 14 101.5 40t87.5 64l13 -59v0z" />
    <glyph glyph-name="Edieresis" unicode="&#xcb;" horiz-adv-x="459" 
d="M69 0v638h333v-58h-266v-230h218v-58h-218v-234h301v-58h-368zM355 766q0 -6 -4 -14.5t-10.5 -16.5t-13.5 -13.5t-13 -5.5t-13.5 5.5t-13.5 13.5t-10.5 16.5t-4.5 14.5t4.5 15t10.5 17t13.5 13.5t13.5 5.5t13 -5.5t13.5 -13.5t10.5 -17t4 -15zM218 766q0 -6 -4.5 -14.5
t-10.5 -16.5t-13.5 -13.5t-13.5 -5.5q-5 0 -12.5 5.5t-14 13.5t-11 16.5t-4.5 14.5t4.5 15t11 17t14 13.5t12.5 5.5q6 0 13.5 -5.5t13.5 -13.5t10.5 -17t4.5 -15z" />
    <glyph glyph-name="Egrave" unicode="&#xc8;" horiz-adv-x="459" 
d="M69 0v638h333v-58h-266v-230h218v-58h-218v-234h301v-58h-368zM271 716q-45 11 -87 29.5t-79 50.5l13 59q37 -38 87.5 -64t101.5 -40z" />
    <glyph glyph-name="Iacute" unicode="&#xcd;" horiz-adv-x="239" 
d="M86 0v638h67v-638h-67zM240 796q-37 -32 -79 -50.5t-87 -29.5l-36 35q51 14 101.5 40t87.5 64l13 -59v0z" />
    <glyph glyph-name="Icircumflex" unicode="&#xce;" horiz-adv-x="239" 
d="M86 0v638h67v-638h-67zM216 716q-29 14 -52 30t-43 39q-20 -23 -43.5 -39t-52.5 -30l-34 34q38 17 71 46.5t59 64.5q25 -35 58 -64.5t72 -46.5z" />
    <glyph glyph-name="Idieresis" unicode="&#xcf;" horiz-adv-x="239" 
d="M86 0v638h67v-638h-67zM232 766q0 -6 -4 -14.5t-10.5 -16.5t-13.5 -13.5t-13 -5.5t-13.5 5.5t-13.5 13.5t-10.5 16.5t-4.5 14.5t4.5 15t10.5 17t13.5 13.5t13.5 5.5t13 -5.5t13.5 -13.5t10.5 -17t4 -15zM95 766q0 -6 -4.5 -14.5t-10.5 -16.5t-13.5 -13.5t-13.5 -5.5
q-5 0 -12.5 5.5t-14 13.5t-11 16.5t-4.5 14.5t4.5 15t11 17t14 13.5t12.5 5.5q6 0 13.5 -5.5t13.5 -13.5t10.5 -17t4.5 -15z" />
    <glyph glyph-name="Igrave" unicode="&#xcc;" horiz-adv-x="239" 
d="M86 0v638h67v-638h-67zM167 716q-45 11 -87 29.5t-79 50.5l13 59q37 -38 87.5 -64t101.5 -40z" />
    <glyph glyph-name="Oacute" unicode="&#xd3;" horiz-adv-x="752" 
d="M710 320q0 -75 -27.5 -136t-73.5 -104.5t-106.5 -67t-126.5 -23.5t-126.5 23.5t-106.5 67t-73.5 104.5t-27.5 136q0 74 27.5 134.5t73.5 104t106.5 67t126.5 23.5t126.5 -23.5t106.5 -67t73.5 -104t27.5 -134.5zM642 320q0 61 -22 111.5t-59 85.5t-85 54.5t-100 19.5
q-53 0 -101 -19.5t-84.5 -54.5t-58.5 -85.5t-22 -111.5q0 -62 22 -112t58.5 -85.5t84.5 -55t101 -19.5q52 0 100 19.5t85 55t59 85.5t22 112zM509 796q-37 -32 -79 -50.5t-87 -29.5l-36 35q51 14 101.5 40t87.5 64l13 -59v0z" />
    <glyph glyph-name="Ocircumflex" unicode="&#xd4;" horiz-adv-x="752" 
d="M710 320q0 -75 -27.5 -136t-73.5 -104.5t-106.5 -67t-126.5 -23.5t-126.5 23.5t-106.5 67t-73.5 104.5t-27.5 136q0 74 27.5 134.5t73.5 104t106.5 67t126.5 23.5t126.5 -23.5t106.5 -67t73.5 -104t27.5 -134.5zM642 320q0 61 -22 111.5t-59 85.5t-85 54.5t-100 19.5
q-53 0 -101 -19.5t-84.5 -54.5t-58.5 -85.5t-22 -111.5q0 -62 22 -112t58.5 -85.5t84.5 -55t101 -19.5q52 0 100 19.5t85 55t59 85.5t22 112zM470 716q-29 14 -52 30t-43 39q-20 -23 -43.5 -39t-52.5 -30l-34 34q38 17 71 46.5t59 64.5q25 -35 58 -64.5t72 -46.5z" />
    <glyph glyph-name="apple" horiz-adv-x="550" 
d="M39 0v453h472v-453h-472zM485 388h-395l241 -178q-44 -17 -67.5 -46.5t-23.5 -55.5q0 -32 14.5 -51t37.5 -32h193v363zM254 25q-25 11 -38 26.5t-22 34.5l-129 279v-340h189v0z" />
    <glyph glyph-name="Ograve" unicode="&#xd2;" horiz-adv-x="752" 
d="M710 320q0 -75 -27.5 -136t-73.5 -104.5t-106.5 -67t-126.5 -23.5t-126.5 23.5t-106.5 67t-73.5 104.5t-27.5 136q0 74 27.5 134.5t73.5 104t106.5 67t126.5 23.5t126.5 -23.5t106.5 -67t73.5 -104t27.5 -134.5zM642 320q0 61 -22 111.5t-59 85.5t-85 54.5t-100 19.5
q-53 0 -101 -19.5t-84.5 -54.5t-58.5 -85.5t-22 -111.5q0 -62 22 -112t58.5 -85.5t84.5 -55t101 -19.5q52 0 100 19.5t85 55t59 85.5t22 112zM394 716q-45 11 -87 29.5t-79 50.5l13 59q37 -38 87.5 -64t101.5 -40z" />
    <glyph glyph-name="Uacute" unicode="&#xda;" horiz-adv-x="636" 
d="M567 221q0 -54 -18 -97t-51 -73t-79 -46t-101 -16q-56 0 -101.5 16t-78.5 46t-51 73t-18 97v417h67v-411q0 -84 47.5 -131t135.5 -47q87 0 135 47t48 131v411h65v-417v0zM459 796q-37 -32 -79 -50.5t-87 -29.5l-36 35q51 14 101.5 40t87.5 64l13 -59v0z" />
    <glyph glyph-name="Ucircumflex" unicode="&#xdb;" horiz-adv-x="636" 
d="M567 221q0 -54 -18 -97t-51 -73t-79 -46t-101 -16q-56 0 -101.5 16t-78.5 46t-51 73t-18 97v417h67v-411q0 -84 47.5 -131t135.5 -47q87 0 135 47t48 131v411h65v-417v0zM414 716q-29 14 -52 30t-43 39q-20 -23 -43.5 -39t-52.5 -30l-34 34q38 17 71 46.5t59 64.5
q25 -35 58 -64.5t72 -46.5z" />
    <glyph glyph-name="Ugrave" unicode="&#xd9;" horiz-adv-x="636" 
d="M567 221q0 -54 -18 -97t-51 -73t-79 -46t-101 -16q-56 0 -101.5 16t-78.5 46t-51 73t-18 97v417h67v-411q0 -84 47.5 -131t135.5 -47q87 0 135 47t48 131v411h65v-417v0zM340 716q-45 11 -87 29.5t-79 50.5l13 59q37 -38 87.5 -64t101.5 -40z" />
    <glyph glyph-name="dotlessi" unicode="&#xd;" horiz-adv-x="230" 
d="M83 0v453h64v-453h-64z" />
    <glyph glyph-name="circumflex" unicode="&#x2c6;" 
d="M275 516q-29 14 -52 30t-43 39q-20 -23 -43.5 -39t-52.5 -30l-34 34q38 17 71 46.5t59 64.5q25 -35 58 -64.5t72 -46.5z" />
    <glyph glyph-name="tilde" unicode="&#x2dc;" 
d="M309 565q-29 -21 -63.5 -33.5t-72.5 -14.5l-16 55q-28 -2 -59 -14.5t-57 -29.5l11 52q30 19 64.5 32.5t71.5 15.5l16 -56q29 2 59.5 15t56.5 29z" />
    <glyph glyph-name="macron" unicode="&#xaf;" 
d="M94 527v55h172v-55h-172z" />
    <glyph glyph-name="breve" 
d="M286 554l-12 -8t-23.5 -13t-32.5 -12t-38 -5q-21 0 -39 5t-32 12t-23.5 13l-12.5 8l36 38q5 -3 26 -11.5t45 -8.5q25 0 45 8.5t25 11.5l36 -38v0z" />
    <glyph glyph-name="dotaccent" 
d="M222 566q0 -6 -4.5 -14.5t-10.5 -16.5t-13.5 -13.5t-13.5 -5.5q-5 0 -12.5 5.5t-14 13.5t-11 16.5t-4.5 14.5t4.5 15t11 17t14 13.5t12.5 5.5q6 0 13.5 -5.5t13.5 -13.5t10.5 -17t4.5 -15z" />
    <glyph glyph-name="ring" 
d="M281 607q0 -21 -8 -39.5t-22 -32t-32 -21.5t-39 -8t-39 8t-32 21.5t-22 32t-8 39.5t8 39t22 31.5t32 21.5t39 8t39 -8t32 -21.5t22 -31.5t8 -39zM240 607q0 26 -17 42.5t-43 16.5t-43 -16.5t-17 -42.5t17 -43t43 -17t43 17t17 43z" />
    <glyph glyph-name="cedilla" unicode="&#xb8;" 
d="M275 -128q0 -24 -9.5 -42.5t-24.5 -30.5t-33.5 -18t-37.5 -6q-41 0 -75 24l9 38q17 -13 33 -17.5t34 -4.5q21 0 39 14t18 41q0 29 -19.5 42.5t-42.5 13.5h-11t-12 -2l19 78h31l-9 -35q16 -1 32 -7.5t29 -19t21.5 -29.5t8.5 -39z" />
    <glyph glyph-name="hungarumlaut" unicode="&#xa;" 
d="M333 647q-14 -23 -27 -40.5t-27.5 -32.5t-30 -29l-33.5 -29l-51 11q39 30 74.5 72.5t58.5 84.5l36 -37v0zM197 647q-14 -23 -27 -40.5t-27 -32.5t-29.5 -29l-33.5 -29l-52 11q39 30 74.5 72.5t58.5 84.5l36 -37v0z" />
    <glyph glyph-name="ogonek" 
d="M252 -211q-11 -6 -26 -10t-38 -4q-19 0 -36 5.5t-30 16.5t-21 26.5t-8 36.5q0 24 9.5 45t25 39t35 32.5t40.5 23.5h59q-24 -11 -46 -25.5t-39 -31.5t-27 -36.5t-10 -40.5q0 -25 16.5 -38t42.5 -13q20 0 35 4.5t29 13.5z" />
    <glyph glyph-name="caron" 
d="M310 620q-39 -17 -72 -46.5t-58 -64.5q-26 35 -59 64.5t-71 46.5l34 33q29 -14 52.5 -29.5t43.5 -38.5q20 23 43 38.5t52 29.5l35 -33v0z" />
    <glyph glyph-name="Eth" unicode="&#xd0;" horiz-adv-x="648" 
d="M604 319q0 -76 -28 -135.5t-76 -100t-112.5 -62t-136.5 -21.5h-167v298h-83v52h83v288h167q72 0 136.5 -21.5t112.5 -62t76 -100t28 -135.5zM536 319q0 64 -22.5 112.5t-62 81.5t-94 50t-117.5 17h-89v-230h140l-12 -52h-128v-240h89q63 0 117.5 17t94 50t62 81.5
t22.5 112.5z" />
    </font>
</defs>
</svg>
