<?xml version="1.0" standalone="no"?>
<!DOCTYPE svg PUBLIC "-//W3C//DTD SVG 1.1//EN" "http://www.w3.org/Graphics/SVG/1.1/DTD/svg11.dtd" >
<svg>
<metadata>
Created by FontForge 20090622 at Fri Jul 27 19:10:04 2018
 By deploy user
Copyright 1993 Greg Thompson. Agenda is a Trademark of Greg Thompson. Produced by The Font Bureau, Inc.
</metadata>
<defs>
<font id="Agenda-Bold" horiz-adv-x="450" >
  <font-face 
    font-family="Agenda"
    font-weight="700"
    font-stretch="normal"
    units-per-em="1000"
    panose-1="2 0 8 3 4 0 0 2 0 4"
    ascent="800"
    descent="-200"
    x-height="453"
    cap-height="638"
    bbox="-79 -240 1043 933"
    underline-thickness="18"
    underline-position="-150"
    unicode-range="U+0005-U+2122"
  />
<missing-glyph horiz-adv-x="500" 
 />
    <glyph glyph-name=".notdef" horiz-adv-x="500" 
 />
    <glyph glyph-name="NUL" horiz-adv-x="0" 
 />
    <glyph glyph-name="nonmarkingreturn" horiz-adv-x="225" 
 />
    <glyph glyph-name="space" unicode=" " horiz-adv-x="225" 
 />
    <glyph glyph-name="space" unicode="&#xa0;" horiz-adv-x="225" 
 />
    <glyph glyph-name="Lslash" horiz-adv-x="505" 
d="M85 0v231l-43 -25l-54 95l97 56v281h155v-192l89 52v-127l-89 -51v-187h256v-133h-411z" />
    <glyph glyph-name="lslash" horiz-adv-x="323" 
d="M229 316v-161q0 -32 17 -50t40 -23l-66 -102q-23 1 -47 12.5t-44 32t-32.5 50.5t-12.5 69v88l-46 -26l-53 95l99 57v354h145v-270l75 44v-127z" />
    <glyph glyph-name="Scaron" unicode="&#x160;" horiz-adv-x="502" 
d="M474 192q0 -94 -60 -150.5t-178 -56.5q-60 0 -109 14t-84 40l-14 149q92 -73 200 -73q43 0 66 16.5t23 45.5q0 28 -21 46t-80 39q-84 29 -127 80.5t-43 117.5q0 40 15 75.5t43 62t69 41.5t94 15q60 0 97.5 -12t58.5 -26l-12 -130q-23 15 -58.5 27.5t-73.5 12.5
q-42 0 -61.5 -16t-19.5 -39t20.5 -39t77.5 -35q38 -13 70.5 -32.5t56 -45.5t37 -58t13.5 -69zM409 821q-40 -17 -80 -50.5t-69 -78.5q-30 45 -70 78.5t-80 50.5l63 62q24 -11 45 -25t42 -35q21 22 41.5 35.5t44.5 24.5l63 -62v0z" />
    <glyph glyph-name="scaron" unicode="&#x161;" horiz-adv-x="393" 
d="M364 131q0 -29 -10.5 -55.5t-32.5 -46.5t-56 -31.5t-80 -11.5q-47 0 -85 11.5t-61 26.5l-13 128q29 -25 69.5 -40.5t83.5 -15.5q23 0 35.5 9.5t12.5 23.5q0 17 -13 26t-39 19q-63 22 -98.5 59t-35.5 91q0 31 12 57.5t34 45.5t53 29.5t68 10.5q42 0 75 -9.5t49 -19.5
l-11 -111q-17 12 -44 21.5t-60 9.5q-20 0 -31 -9t-11 -23t12 -23t42 -19q66 -21 100.5 -59t34.5 -94zM321 620q-34 -15 -68 -43.5t-59 -66.5q-26 38 -59.5 66.5t-67.5 43.5l53 53q20 -10 38 -22t36 -29q18 18 35.5 29.5t37.5 21.5l54 -53v0z" />
    <glyph glyph-name="Yacute" unicode="&#xdd;" horiz-adv-x="623" 
d="M386 285v-285h-150v282l-238 356h165l105 -154l23.5 -37t22.5 -39h2l24 39.5l24 36.5l105 154h154zM473 779q-47 -32 -89 -49t-94 -30l-65 64q27 7 56.5 18.5t59 26.5t57.5 34t51 41l24 -105v0z" />
    <glyph glyph-name="yacute" unicode="&#xfd;" horiz-adv-x="505" 
d="M331 39q-46 -120 -104 -189.5t-140 -89.5l-60 95q26 9 48 21.5t40.5 32t35.5 47.5t33 67l-169 430h145l67 -177q8 -20 14.5 -41.5l13.5 -46.5h2q6 24 12.5 45.5t14.5 41.5l68 178h138zM397 584q-40 -28 -75.5 -42t-80.5 -25l-55 54q45 13 98 38.5t92 63.5l21 -89v0z" />
    <glyph glyph-name="Thorn" unicode="&#xde;" horiz-adv-x="511" 
d="M495 371q0 -45 -16.5 -81t-45 -61t-66 -38.5t-78.5 -13.5h-85v-177h-149v638h149v-74h85q41 0 78.5 -13.5t66 -38t45 -60.5t16.5 -81zM347 371q0 36 -25 53.5t-55 17.5h-63v-143h63q30 0 55 17t25 55z" />
    <glyph glyph-name="thorn" unicode="&#xfe;" horiz-adv-x="551" 
d="M521 232q0 -56 -18.5 -101t-51.5 -77.5t-77.5 -50t-96.5 -17.5q-29 0 -50 5.5t-35 13.5v-236h-142v943h142v-272q39 25 101 25q40 0 81 -15.5t73.5 -45.5t53 -73.5t20.5 -98.5zM380 225q0 25 -8 45.5t-22.5 35.5t-34 23.5t-41.5 8.5q-26 0 -46.5 -8.5t-35.5 -22.5v-167
q14 -12 35 -20t47 -8q22 0 41.5 8.5t34 23.5t22.5 35.5t8 45.5z" />
    <glyph glyph-name="Zcaron" horiz-adv-x="523" 
d="M22 0v37l171 313l44.5 79t45.5 76l-1 1h-244v132h454v-37l-172 -314q-20 -38 -44.5 -80l-44.5 -74l1 -1h271v-132h-481zM413 821q-40 -17 -80 -50.5t-69 -78.5q-30 45 -70 78.5t-80 50.5l63 62q24 -11 45 -25t42 -35q21 22 41.5 35.5t44.5 24.5l63 -62v0z" />
    <glyph glyph-name="zcaron" horiz-adv-x="437" 
d="M28 0v28l109 202q14 26 29.5 52l29.5 48l-1 2h-150v121h346v-28l-110 -203q-14 -26 -28.5 -50l-30.5 -49l1 -2h183v-121h-378zM344 620q-34 -15 -68 -43.5t-59 -66.5q-26 38 -59.5 66.5t-67.5 43.5l53 53q20 -10 38 -22t36 -29q18 18 35.5 29.5t37.5 21.5l54 -53v0z" />
    <glyph glyph-name="onehalf" unicode="&#xbd;" horiz-adv-x="792" 
d="M468 0v27q37 31 68.5 63.5t55 63.5t37 57.5t13.5 45.5q0 28 -17.5 44.5t-48.5 16.5q-23 0 -44.5 -6t-39.5 -16l-9 84q21 11 48.5 17.5t56.5 6.5q74 0 116.5 -38t42.5 -107q0 -42 -29.5 -90t-74.5 -88h123v-81h-298zM124 -14l-55 46l503 620l54 -45zM89 245v310l-67 -6
l10 85l157 14v-403h-100z" />
    <glyph glyph-name="onequarter" unicode="&#xbc;" horiz-adv-x="731" 
d="M652 105v-105h-95v105h-165l-14 72l178 220h96v-218h47v-74h-47zM124 -14l-55 46l503 620l54 -45zM89 245v310l-67 -6l10 85l157 14v-403h-100zM558 295q-10 -22 -26 -41l-60 -75h85v77q0 21 4 38z" />
    <glyph glyph-name="onesuperior" unicode="&#xb9;" horiz-adv-x="247" 
d="M89 245v310l-67 -6l10 85l157 14v-403h-100z" />
    <glyph glyph-name="threequarters" unicode="&#xbe;" horiz-adv-x="759" 
d="M686 105v-105h-95v105h-165l-14 72l178 220h96v-218h47v-74h-47zM158 -14l-55 46l503 620l54 -45zM275 377q0 -34 -12 -60t-33.5 -43.5t-51.5 -26.5t-65 -9q-18 0 -40 4t-35 11l-9 85q18 -11 37 -14.5t40 -3.5q24 0 44 14t20 39q0 20 -14.5 32.5t-38.5 12.5
q-4 0 -10.5 -0.5t-13.5 -2.5l-7 75q22 5 37 17.5t15 26.5q0 13 -10 21t-27 8q-14 0 -29 -3.5t-28 -11.5l-9 85q17 8 36.5 11.5t45.5 3.5q54 0 89.5 -26.5t35.5 -71.5q0 -25 -12.5 -44.5t-31.5 -29.5q13 -3 27 -12t25 -22t18 -29.5t7 -35.5zM593 295q-12 -22 -26 -41l-60 -75
h84v77q0 10 1 19t3 19z" />
    <glyph glyph-name="threesuperior" unicode="&#xb3;" horiz-adv-x="301" 
d="M275 377q0 -34 -12 -60t-33.5 -43.5t-51.5 -26.5t-65 -9q-18 0 -40 4t-35 11l-9 85q18 -11 37 -14.5t40 -3.5q24 0 44 14t20 39q0 20 -14.5 32.5t-38.5 12.5q-4 0 -10.5 -0.5t-13.5 -2.5l-7 75q22 5 37 17.5t15 26.5q0 13 -10 21t-27 8q-14 0 -29 -3.5t-28 -11.5l-9 85
q17 8 36.5 11.5t45.5 3.5q54 0 89.5 -26.5t35.5 -71.5q0 -25 -12.5 -44.5t-31.5 -29.5q13 -3 27 -12t25 -22t18 -29.5t7 -35.5z" />
    <glyph glyph-name="twosuperior" unicode="&#xb2;" horiz-adv-x="353" 
d="M19 245v27q37 31 69 63.5t55 63.5t36.5 57.5t13.5 45.5q0 28 -17.5 44.5t-48.5 16.5q-23 0 -44.5 -6t-39.5 -16l-9 84q21 10 48.5 16.5t56.5 6.5q74 0 117 -37.5t43 -106.5q0 -42 -30 -90t-74 -88h122v-81h-298z" />
    <glyph glyph-name="brokenbar" unicode="&#xa6;" horiz-adv-x="237" 
d="M63 300v412h111v-412h-111zM63 -231v412h111v-412h-111z" />
    <glyph glyph-name="minus" unicode="&#xad;" horiz-adv-x="425" 
d="M41 221v106h343v-106h-343z" />
    <glyph glyph-name="multiply" unicode="&#xd7;" horiz-adv-x="439" 
d="M321 97l-101 100l-100 -100l-76 76l100 100l-100 101l76 76l100 -101l101 100l75 -75l-100 -100l101 -101z" />
    <glyph glyph-name="eth" unicode="&#xf0;" horiz-adv-x="525" 
d="M490 215q0 -52 -17 -94.5t-47.5 -72.5t-73 -46.5t-93.5 -16.5q-52 0 -94.5 17t-72.5 46.5t-46 69.5t-16 86q0 73 36 122.5t90 73.5q21 10 50 19.5t55 14.5l-33 78l-77 -31l-41 102l76 31l-41 98h156l18 -45l62 25l41 -102l-60 -24l106 -253q8 -20 15 -47.5t7 -50.5z
M345 212q0 10 -3.5 23.5t-9 28t-12 28l-11.5 24.5q-17 -2 -35.5 -7t-36.5 -13q-31 -11 -48 -35t-17 -56q0 -39 24.5 -64.5t61.5 -25.5q38 0 62.5 26.5t24.5 70.5z" />
    <glyph glyph-name="exclam" unicode="!" horiz-adv-x="268" 
d="M193 192l-119 25l-17 465h154zM219 68q0 -10 -9 -24t-22 -27t-27.5 -22t-24.5 -9t-24.5 9t-27.5 22t-22 27t-9 24t9 24t22 27t27.5 22t24.5 9t24.5 -9t27.5 -22t22 -27t9 -24z" />
    <glyph glyph-name="quotedbl" unicode="&#x22;" horiz-adv-x="364" 
d="M307 431h-71l-21 281h113zM127 431h-71l-20 281h113z" />
    <glyph glyph-name="numbersign" unicode="#" horiz-adv-x="451" 
d="M357 366l-21 -94h54v-78h-73l-45 -194h-85l45 194h-71l-45 -194h-85l44 194h-45v78h64l22 94h-55v78h73l45 194h85l-44 -194h71l44 194h85l-44 -194h46v-78h-65zM201 366l-21 -94h70l22 94h-71z" />
    <glyph glyph-name="dollar" unicode="$" horiz-adv-x="491" 
d="M452 185q0 -39 -11 -72.5t-32.5 -59.5t-54 -43t-75.5 -23v-84h-77v83q-49 3 -87.5 17t-71.5 35l12 126q32 -22 73 -38.5t94 -16.5q39 0 61.5 20t22.5 48t-21 47.5t-70 37.5q-86 32 -132.5 81t-46.5 122q0 72 43.5 123t122.5 62v87h77v-84q42 -3 73 -12t57 -23l-12 -126
q-26 17 -65 28.5t-81 11.5q-35 0 -53.5 -17.5t-18.5 -41.5q0 -23 19 -40t68 -35q88 -32 137 -86t49 -127z" />
    <glyph glyph-name="percent" unicode="%" horiz-adv-x="712" 
d="M331 505q0 -33 -12 -61t-32.5 -47.5t-48 -30.5t-59.5 -11t-59 11t-47.5 30.5t-32 47.5t-11.5 61t11.5 60t32 46.5t47.5 30.5t59 11t59.5 -11t48 -30.5t32.5 -46.5t12 -60zM134 -19l-62 50l507 626l60 -49zM684 135q0 -33 -12 -61t-32 -47.5t-48 -30.5t-59 -11
q-32 0 -59.5 11t-48 30.5t-32.5 47.5t-12 61t12 60t32.5 46.5t48 30.5t59.5 11q31 0 59 -11t48 -30.5t32 -46.5t12 -60zM233 505q0 26 -16 42.5t-38 16.5t-37.5 -16.5t-15.5 -42.5t15.5 -43t37.5 -17t38 17t16 43zM586 135q0 26 -16 42t-37 16q-22 0 -38 -16t-16 -42t16 -43
t38 -17q21 0 37 17t16 43z" />
    <glyph glyph-name="ampersand" unicode="&#x26;" horiz-adv-x="626" 
d="M472 0l-44 44q-38 -26 -85 -42t-104 -16q-47 0 -86 14t-66.5 38t-42.5 56.5t-15 68.5t8 63t22.5 48t33 37t39.5 28q-30 31 -48.5 66t-18.5 74q0 40 15 72t40.5 54.5t59 35t69.5 12.5q38 0 73 -12.5t61.5 -35t42.5 -55.5t16 -73q0 -28 -10 -53t-25.5 -46t-35.5 -38
t-40 -28l100 -100q49 62 75 132l87 -88q-11 -29 -30.5 -62.5t-45.5 -67.5l126 -126h-171zM317 480q0 24 -19 44.5t-48 20.5q-26 0 -44 -20t-18 -43q0 -20 15 -40t42 -46q35 19 53.5 41.5t18.5 42.5zM217 254q-59 -29 -59 -85q0 -15 7 -28.5t19 -23t27.5 -15t33.5 -5.5
q25 0 49.5 8.5t47.5 23.5z" />
    <glyph glyph-name="quotesingle" unicode="'" horiz-adv-x="185" 
d="M127 431h-71l-20 281h113z" />
    <glyph glyph-name="parenleft" unicode="(" horiz-adv-x="296" 
d="M287 694q-50 -98 -77.5 -216.5t-27.5 -241.5q0 -130 24.5 -243.5t77.5 -228.5l-149 30q-24 53 -42.5 105t-31 107t-19 114.5t-6.5 128.5q0 140 26 255.5t76 218.5l149 -29v0z" />
    <glyph glyph-name="parenright" unicode=")" horiz-adv-x="296" 
d="M261 234q0 -140 -26 -255t-77 -219l-148 30q49 98 76.5 216t27.5 241q0 130 -24.5 243.5t-76.5 229.5l148 -32q24 -53 43 -105t31.5 -106.5t19 -114t6.5 -128.5z" />
    <glyph glyph-name="asterisk" unicode="*" horiz-adv-x="442" 
d="M293 476l80 -98l-72 -79l-80 124l-67 -106l-97 46l95 113l-122 32l12 104l134 -55l-8 125l106 24l-8 -147l113 48l56 -93z" />
    <glyph glyph-name="plus" unicode="+" horiz-adv-x="452" 
d="M287 220v-124h-122v124h-132v112h132v124h122v-124h132v-112h-132z" />
    <glyph glyph-name="comma" unicode="," horiz-adv-x="220" 
d="M193 69q0 -21 -11.5 -50t-29.5 -59.5t-41 -59.5t-46 -50l-47 8q29 33 48.5 71.5t25.5 70.5q-9 1 -20 9t-21 18.5t-17 22t-7 19.5q0 11 9.5 25t22.5 26.5t27 21t24 8.5q9 0 23 -8.5t27.5 -20.5t23 -26t9.5 -26z" />
    <glyph glyph-name="hyphen" unicode="-" horiz-adv-x="328" 
d="M33 220v112h262v-112h-262z" />
    <glyph glyph-name="period" unicode="." horiz-adv-x="220" 
d="M193 68q0 -10 -9 -24t-22 -27t-27.5 -22t-24.5 -9t-24.5 9t-27.5 22t-22 27t-9 24t9 24t22 27t27.5 22t24.5 9t24.5 -9t27.5 -22t22 -27t9 -24z" />
    <glyph glyph-name="slash" unicode="/" horiz-adv-x="646" 
d="M113 -22l-87 73l509 626l85 -70z" />
    <glyph glyph-name="zero" unicode="0" horiz-adv-x="559" 
d="M524 320q0 -88 -20 -151.5t-54 -104t-78.5 -60t-92.5 -19.5q-49 0 -93 19.5t-77.5 60t-53.5 104t-20 151.5q0 87 20 150t53.5 103.5t77.5 60t93 19.5q48 0 92.5 -19.5t78.5 -60t54 -103.5t20 -150zM378 320q0 105 -29.5 156t-69.5 51q-39 0 -68.5 -51t-29.5 -156
q0 -53 8 -92.5t21.5 -65t31 -38t37.5 -12.5q40 0 69.5 50.5t29.5 157.5z" />
    <glyph glyph-name="one" unicode="1" horiz-adv-x="343" 
d="M129 0v512l-113 -10l11 127l246 22v-651h-144z" />
    <glyph glyph-name="two" unicode="2" horiz-adv-x="485" 
d="M27 0v39q49 50 94 104t80 105.5t56 97.5t21 81q0 48 -26.5 73t-68.5 25q-36 0 -67 -11t-60 -30l-12 129q30 18 68.5 29t84.5 11q49 0 91 -13.5t73 -40.5t48 -67t17 -93q0 -39 -16 -83t-40 -86.5t-53 -81t-55 -66.5h197v-122h-432z" />
    <glyph glyph-name="three" unicode="3" horiz-adv-x="432" 
d="M400 195q0 -100 -66.5 -154.5t-185.5 -54.5q-24 0 -53 5t-52 15l-13 129q26 -14 54.5 -19.5t57.5 -5.5q20 0 39 5.5t33.5 17t23.5 28t9 39.5q0 17 -7 32.5t-20 27t-30 18.5t-36 7q-12 0 -30 -3l-12 113q40 9 65.5 29.5t25.5 49.5q0 24 -17.5 40t-48.5 16q-25 0 -44 -4
t-42 -15l-11 118q26 12 54.5 18t66.5 6q43 0 78 -11.5t60 -32t38.5 -49.5t13.5 -63q0 -47 -23 -80.5t-52 -46.5q22 -6 44 -20.5t40 -37t29 -52t11 -65.5z" />
    <glyph glyph-name="four" unicode="4" horiz-adv-x="520" 
d="M418 154v-154h-136v154h-254l-19 115l275 369h134v-373h68v-111h-68zM283 461q-20 -34 -45 -67l-96 -129h140v130q0 32 3 65z" />
    <glyph glyph-name="five" unicode="5" horiz-adv-x="453" 
d="M421 199q0 -48 -16 -87t-47 -67t-76.5 -43.5t-104.5 -15.5q-37 0 -69 6.5t-51 15.5l-13 131q28 -15 56.5 -21.5t62.5 -6.5q45 0 75 24t30 63q0 42 -30.5 67.5t-76.5 25.5q-33 0 -54.5 -4t-44.5 -12l9 363h301l-11 -122h-150l-4 -114q5 1 9.5 1h9.5q37 0 72 -15t62.5 -42
t44 -64.5t16.5 -82.5z" />
    <glyph glyph-name="six" unicode="6" horiz-adv-x="524" 
d="M491 205q0 -48 -17 -88.5t-47.5 -69.5t-72 -45t-89.5 -16q-47 0 -89 16t-73.5 47t-49.5 75.5t-18 101.5q0 64 20 127.5t56 120.5t85.5 105t108.5 83l148 -46q-36 -18 -71 -42.5t-65 -53t-54 -59.5t-39 -60q20 17 54 17q38 0 76 -14.5t68.5 -42t49.5 -67t19 -89.5z
M349 202q0 40 -24.5 65.5t-62.5 25.5q-26 0 -47.5 -11t-31.5 -36q-2 -8 -2.5 -18t-0.5 -19q0 -42 26.5 -68t61.5 -26q34 0 57.5 24.5t23.5 62.5z" />
    <glyph glyph-name="seven" unicode="7" horiz-adv-x="489" 
d="M227 0h-152l217 516h-265v122h462z" />
    <glyph glyph-name="eight" unicode="8" horiz-adv-x="532" 
d="M497 184q0 -46 -17 -83t-47.5 -62.5t-73 -39.5t-93.5 -14t-93.5 14t-73 39.5t-47.5 62.5t-17 83q0 31 10.5 57.5t26.5 47t34.5 34.5t33.5 20q-16 7 -30.5 21t-26 32t-18.5 39.5t-7 44.5q0 38 15 70t42 55t65 35.5t84 12.5t84.5 -12.5t66 -36t42.5 -56t15 -71.5
q0 -22 -7 -42.5t-19 -37.5t-26.5 -30.5t-29.5 -20.5q16 -7 35 -21.5t35 -35.5t26.5 -47.5t10.5 -57.5zM342 472q0 29 -22 48t-54 19q-31 0 -52.5 -19t-21.5 -48q0 -26 21.5 -46.5t56.5 -29.5q35 10 53.5 30t18.5 46zM354 185q0 18 -9 33t-23 26.5t-31 19.5t-33 12
q-15 -4 -30.5 -12t-28 -19.5t-21 -26.5t-8.5 -33t7.5 -33t20.5 -26t29.5 -17t34.5 -6q19 0 35.5 6t29 17t20 26t7.5 33z" />
    <glyph glyph-name="nine" unicode="9" horiz-adv-x="524" 
d="M489 413q0 -65 -20.5 -128t-56.5 -120t-85.5 -105.5t-107.5 -82.5l-148 46q36 18 71 42.5t65 53t54 59.5t39 60q-20 -17 -54 -17q-38 0 -76 14.5t-68.5 42t-49.5 67t-19 89.5q0 48 17 88.5t47.5 69.5t72 45t89.5 16q47 0 89 -16t73.5 -47t49.5 -75.5t18 -101.5zM344 430
q0 21 -7.5 38t-19.5 29.5t-28 19.5t-34 7q-33 0 -56.5 -24.5t-23.5 -62.5q0 -40 24 -65.5t62 -25.5q27 0 48.5 11t31.5 36q2 8 2.5 18t0.5 19z" />
    <glyph glyph-name="colon" unicode=":" horiz-adv-x="220" 
d="M193 385q0 -10 -9 -24t-22 -27t-27.5 -22t-24.5 -9t-24.5 9t-27.5 22t-22 27t-9 24t9 24t22 27t27.5 22t24.5 9t24.5 -9t27.5 -22t22 -27t9 -24zM193 68q0 -10 -9 -24t-22 -27t-27.5 -22t-24.5 -9t-24.5 9t-27.5 22t-22 27t-9 24t9 24t22 27t27.5 22t24.5 9t24.5 -9
t27.5 -22t22 -27t9 -24z" />
    <glyph glyph-name="semicolon" unicode=";" horiz-adv-x="220" 
d="M193 385q0 -10 -9 -24t-22 -27t-27.5 -22t-24.5 -9t-24.5 9t-27.5 22t-22 27t-9 24t9 24t22 27t27.5 22t24.5 9t24.5 -9t27.5 -22t22 -27t9 -24zM193 69q0 -21 -11.5 -50t-29.5 -59.5t-41 -59.5t-46 -50l-47 8q29 33 48.5 71.5t25.5 70.5q-9 1 -20 9t-21 18.5t-17 22
t-7 19.5q0 11 9.5 25t22.5 26.5t27 21t24 8.5q9 0 23 -8.5t27.5 -20.5t23 -26t9.5 -26z" />
    <glyph glyph-name="less" unicode="&#x3c;" horiz-adv-x="350" 
d="M213 91l-187 186l186 187l83 -83l-103 -104l103 -104z" />
    <glyph glyph-name="equal" unicode="=" horiz-adv-x="452" 
d="M33 319v111h386v-111h-386zM33 122v111h386v-111h-386z" />
    <glyph glyph-name="greater" unicode="&#x3e;" horiz-adv-x="350" 
d="M138 91l-83 82l103 104l-103 104l83 83l186 -186z" />
    <glyph glyph-name="question" unicode="?" horiz-adv-x="406" 
d="M371 511q0 -50 -23.5 -91t-69.5 -93q-23 -26 -32.5 -50.5t-9.5 -47.5q0 -13 0.5 -21t2.5 -16l-120 25q-3 11 -5 23t-2 26q0 39 15 75t50 76q21 23 33.5 44.5t12.5 49.5q0 23 -18 42t-52 19q-35 0 -65 -14t-55 -34l-11 127q26 21 63 33.5t79 12.5q47 0 85.5 -13.5
t65.5 -38t41.5 -59t14.5 -75.5zM265 69q0 -10 -9 -24.5t-22 -27.5t-27.5 -22.5t-24.5 -9.5t-24.5 9.5t-27.5 22.5t-22 27.5t-9 24.5t9 24t22 27t27.5 22t24.5 9t24.5 -9t27.5 -22t22 -27t9 -24z" />
    <glyph glyph-name="at" unicode="@" horiz-adv-x="762" 
d="M727 383q0 -47 -13.5 -91.5t-39 -79.5t-61 -56.5t-80.5 -21.5q-26 0 -47.5 16t-25.5 48q-23 -33 -54 -48t-73 -15q-22 0 -43 9t-37.5 26t-26.5 42t-10 57q0 55 21 98t54 72.5t73.5 45t80.5 15.5q38 0 68 -11.5t46 -28.5l-29 -191q-1 -5 -1.5 -9t-0.5 -9q0 -24 18 -24
q15 0 30 12.5t27.5 34t20.5 50.5t8 62q0 43 -15 77t-42 57.5t-64.5 35.5t-82.5 12q-58 0 -112 -23t-95.5 -63.5t-66.5 -96t-25 -119.5q0 -49 15.5 -85.5t41.5 -60.5t60.5 -36t72.5 -12q70 0 112 33l-12 -92q-16 -11 -44.5 -19t-64.5 -8q-62 0 -112.5 20.5t-86.5 57t-56 88
t-20 113.5q0 80 32 151t86.5 124t128 83.5t156.5 30.5q64 0 117.5 -20.5t91.5 -56.5t59 -86t21 -108zM450 398q-5 3 -10.5 5t-13.5 2q-19 0 -37.5 -9.5t-33.5 -27t-24 -41.5t-9 -52q0 -24 11 -35.5t29 -11.5q25 0 45.5 25.5t28.5 67.5l14 77v0z" />
    <glyph glyph-name="A" unicode="A" horiz-adv-x="629" 
d="M465 0l-50 133h-210l-49 -133h-146l251 643h107l251 -643h-154zM331 378q-5 14 -10 31l-10 34h-2q-4 -17 -9.5 -34t-10.5 -31l-46 -128h134z" />
    <glyph glyph-name="B" unicode="B" horiz-adv-x="545" 
d="M514 198q0 -47 -17 -83.5t-47 -62t-69.5 -39t-84.5 -13.5h-241v638h214q37 0 71 -12t60 -33.5t41 -53t15 -70.5q0 -14 -3.5 -30t-10.5 -30.5t-16.5 -26.5t-22.5 -19q20 -6 40 -22t35.5 -38t25.5 -49t10 -56zM315 459q0 35 -21.5 50t-48.5 15h-49v-129h49q27 0 48.5 14.5
t21.5 49.5zM364 198q0 42 -29 62.5t-65 20.5h-74v-165h74q18 0 35 5t30 15t21 25.5t8 36.5z" />
    <glyph glyph-name="C" unicode="C" horiz-adv-x="593" 
d="M553 479q-25 16 -62.5 28t-89.5 12q-44 0 -82 -14t-66 -40.5t-44.5 -63.5t-16.5 -82t16.5 -81.5t45 -63t68 -40.5t84.5 -14q52 0 91.5 10.5t65.5 27.5l-13 -139q-27 -16 -68 -25t-99 -9q-63 0 -125.5 21.5t-112 63.5t-80 104.5t-30.5 144.5t31 144.5t80.5 104.5
t111.5 63.5t125 21.5q60 0 106 -11t75 -28z" />
    <glyph glyph-name="D" unicode="D" horiz-adv-x="647" 
d="M612 319q0 -75 -27.5 -134t-74.5 -100t-109 -63t-131 -22h-215v638h215q69 0 131 -22t109 -63t74.5 -100t27.5 -134zM457 319q0 46 -16.5 81t-44.5 58.5t-65 35t-79 11.5h-48v-372h48q42 0 79 11.5t65 35t44.5 58t16.5 81.5z" />
    <glyph glyph-name="E" unicode="E" horiz-adv-x="475" 
d="M55 0v638h372v-127h-217v-127h177v-129h-177v-128h245v-127h-400z" />
    <glyph glyph-name="F" unicode="F" horiz-adv-x="451" 
d="M210 511v-127h186v-129h-186v-255h-155v638h381v-127h-226z" />
    <glyph glyph-name="G" unicode="G" horiz-adv-x="673" 
d="M625 51q-83 -66 -236 -66q-66 0 -129.5 21.5t-113.5 63.5t-80.5 104.5t-30.5 144.5t31 144.5t81 104.5t112.5 63.5t125.5 21.5q67 0 118.5 -14.5t84.5 -36.5l-12 -136q-33 24 -77.5 38.5t-97.5 14.5q-44 0 -82.5 -14t-67 -40.5t-45.5 -64.5t-17 -85q0 -45 16 -81.5
t44 -62.5t65.5 -40t81.5 -14q55 0 87 19v90h-116v119h258v-294v0z" />
    <glyph glyph-name="H" unicode="H" horiz-adv-x="666" 
d="M457 0v253h-247v-253h-155v638h155v-252h247v252h154v-638h-154z" />
    <glyph glyph-name="I" unicode="I" horiz-adv-x="285" 
d="M65 0v638h155v-638h-155z" />
    <glyph glyph-name="J" unicode="J" horiz-adv-x="310" 
d="M245 127q0 -70 -18.5 -121t-50 -85.5t-72 -54.5t-84.5 -27l-67 107q68 12 102.5 56.5t34.5 138.5v497h155v-511v0z" />
    <glyph glyph-name="K" unicode="K" horiz-adv-x="585" 
d="M402 0l-192 263v-263h-155v638h155v-274l196 274h169l-223 -317l230 -321h-180z" />
    <glyph glyph-name="L" unicode="L" horiz-adv-x="475" 
d="M55 0v638h155v-505h256v-133h-411z" />
    <glyph glyph-name="M" unicode="M" horiz-adv-x="854" 
d="M662 0l-21 235l-4 57.5t-2 60.5h-2q-11 -31 -25.5 -62l-28.5 -59l-120 -234h-62l-121 234l-28 58.5t-26 61.5h-2q0 -32 -2 -61l-4 -56l-20 -235h-149l55 638h126l139 -268l32.5 -66t31.5 -70h2q12 32 28 67.5t33 68.5l138 268h127l57 -638h-152z" />
    <glyph glyph-name="N" unicode="N" horiz-adv-x="709" 
d="M576 -7l-248 272l-61.5 70.5l-57.5 69.5l-2 -1q2 -34 2.5 -69t0.5 -65v-270h-155v638h125l216 -238l52.5 -59.5l51.5 -62.5l2 1q-3 57 -3 119v240h155v-645h-78z" />
    <glyph glyph-name="O" unicode="O" horiz-adv-x="757" 
d="M722 320q0 -77 -29 -139t-77 -105.5t-110 -67t-128 -23.5t-128 23.5t-109.5 67t-76.5 105.5t-29 139q0 76 29 138t76.5 105t109.5 66.5t128 23.5t128 -23.5t110 -66.5t77 -105t29 -138zM565 320q0 45 -15.5 81t-42 62t-60 40t-69.5 14t-69.5 -14t-59.5 -40t-41.5 -62
t-15.5 -81t15.5 -81.5t41.5 -62.5t59.5 -40t69.5 -14t69.5 14t60 40t42 62.5t15.5 81.5z" />
    <glyph glyph-name="P" unicode="P" horiz-adv-x="511" 
d="M495 445q0 -45 -16.5 -81t-45 -61t-66 -38.5t-78.5 -13.5h-85v-251h-149v638h234q41 0 78.5 -13.5t66 -38t45 -60.5t16.5 -81zM347 445q0 36 -25 53.5t-55 17.5h-63v-143h63q30 0 55 17t25 55z" />
    <glyph glyph-name="Q" unicode="Q" horiz-adv-x="757" 
d="M683 -147q-5 -2 -11 -2h-12q-48 0 -88 12t-86 39l-84.5 49t-67.5 37q-58 7 -112 33t-95.5 68.5t-66.5 100.5t-25 129q0 77 29 139t77 105.5t110 67t128 23.5t128 -23.5t109.5 -67t76.5 -105.5t29 -139q0 -54 -17 -102.5t-45 -87t-64.5 -65.5t-75.5 -40v-2
q15 -3 30.5 -9.5t46.5 -23.5q28 -14 54.5 -20t47.5 -6q18 0 32.5 2t31.5 9zM564 319q0 45 -15.5 81.5t-41.5 62.5t-59.5 40t-68.5 14q-36 0 -69.5 -14t-59.5 -40t-41.5 -62.5t-15.5 -81.5q0 -44 15.5 -80.5t41.5 -62t59.5 -39.5t69.5 -14q35 0 68.5 14t59.5 39.5t41.5 62
t15.5 80.5z" />
    <glyph glyph-name="R" unicode="R" horiz-adv-x="583" 
d="M431 0l-172 251h-55v-251h-149v638h238q41 0 78 -13.5t65.5 -38t45.5 -60.5t17 -81q0 -57 -28.5 -99t-69.5 -61l203 -285h-173zM350 445q0 36 -25 53.5t-55 17.5h-66v-143h66q30 0 55 17t25 55z" />
    <glyph glyph-name="S" unicode="S" horiz-adv-x="502" 
d="M474 192q0 -94 -60 -150.5t-178 -56.5q-60 0 -109 14t-84 40l-14 149q92 -73 200 -73q43 0 66 16.5t23 45.5q0 28 -21 46t-80 39q-84 29 -127 80.5t-43 117.5q0 40 15 75.5t43 62t69 41.5t94 15q60 0 97.5 -12t58.5 -26l-12 -130q-23 15 -58.5 27.5t-73.5 12.5
q-42 0 -61.5 -16t-19.5 -39t20.5 -39t77.5 -35q38 -13 70.5 -32.5t56 -45.5t37 -58t13.5 -69z" />
    <glyph glyph-name="T" unicode="T" horiz-adv-x="559" 
d="M357 514v-514h-154v515h-193v123h539v-124h-192z" />
    <glyph glyph-name="U" unicode="U" horiz-adv-x="663" 
d="M608 218q0 -53 -22 -96t-59.5 -73t-88 -46.5t-107.5 -16.5t-107.5 16.5t-88 46.5t-59 73t-21.5 96v420h155v-406q0 -49 33.5 -79.5t89.5 -30.5t90 30.5t34 79.5v406h151v-420v0z" />
    <glyph glyph-name="V" unicode="V" horiz-adv-x="591" 
d="M357 -4h-127l-233 642h159l100 -281q11 -32 22 -69t20 -73h2q9 36 20 73t22 69l100 281h147z" />
    <glyph glyph-name="W" unicode="W" horiz-adv-x="903" 
d="M685 -4h-99l-93 282q-11 32 -21 66t-21 76h-2q-11 -42 -21 -76t-21 -66l-93 -282h-99l-213 642h149l83 -258q10 -29 18.5 -60.5t15.5 -67.5h2q8 36 16 67t18 61l84 258h134l83 -257q8 -26 16.5 -60l16.5 -69h2q7 35 16 67.5t18 60.5l85 258h139z" />
    <glyph glyph-name="X" unicode="X" horiz-adv-x="611" 
d="M426 0l-85 138l-19.5 34l-19.5 36h-2q-8 -17 -19 -35.5l-21 -34.5l-87 -138h-161l205 324l-195 314h170l80 -129q9 -14 18.5 -31t16.5 -33h2q8 16 17.5 33t18.5 31l80 129h161l-194 -310l204 -328h-170z" />
    <glyph glyph-name="Y" unicode="Y" horiz-adv-x="623" 
d="M386 285v-285h-150v282l-238 356h165l105 -154l23.5 -37t22.5 -39h2l24 39.5l24 36.5l105 154h154z" />
    <glyph glyph-name="Z" unicode="Z" horiz-adv-x="523" 
d="M22 0v37l171 313l44.5 79t45.5 76l-1 1h-244v132h454v-37l-172 -314q-20 -38 -44.5 -80l-44.5 -74l1 -1h271v-132h-481z" />
    <glyph glyph-name="bracketleft" unicode="[" horiz-adv-x="343" 
d="M47 -224v930h271v-121h-127v-688h127v-121h-271z" />
    <glyph glyph-name="backslash" unicode="\" horiz-adv-x="651" 
d="M536 -22l-507 629l85 70l508 -626z" />
    <glyph glyph-name="bracketright" unicode="]" horiz-adv-x="343" 
d="M28 -224v121h128v688h-128v121h271v-930h-271z" />
    <glyph glyph-name="asciicircum" unicode="^" horiz-adv-x="400" 
d="M302 500q-28 13 -52.5 28.5t-49.5 41.5q-25 -25 -49 -41t-52 -29l-73 72q47 21 93 60.5t81 91.5q35 -52 81.5 -91.5t93.5 -60.5z" />
    <glyph glyph-name="underscore" unicode="_" horiz-adv-x="550" 
d="M-1 -231v112h553v-112h-553z" />
    <glyph glyph-name="grave" unicode="`" 
d="M295 500q-26 7 -49.5 14t-45.5 16t-43.5 21t-45.5 28l25 105q23 -22 51 -41t57.5 -34t59 -26.5t56.5 -18.5z" />
    <glyph glyph-name="a" unicode="a" horiz-adv-x="484" 
d="M416 -14q-68 5 -96 51q-23 -26 -56.5 -38.5t-70.5 -12.5q-35 0 -64.5 10t-52 29.5t-35 47t-12.5 62.5q0 63 43.5 101.5t110.5 45.5l90 9v16q0 21 -16.5 34t-54.5 13q-39 0 -75 -9t-58 -22l-11 112q26 14 68 23t84 9q95 0 150 -47t55 -135v-130q0 -30 14 -46.5t38 -20.5z
M277 198l-61 -6q-32 -3 -45.5 -20.5t-13.5 -38.5q0 -18 13.5 -31t34.5 -13q27 0 49.5 19t22.5 48v42z" />
    <glyph glyph-name="b" unicode="b" horiz-adv-x="525" 
d="M495 234q0 -59 -19.5 -105t-55 -77.5t-84 -48.5t-106.5 -17t-104 14.5t-76 33.5v678h142v-254q10 4 23.5 6.5t31.5 2.5q49 0 94 -17t79.5 -47.5t54.5 -73.5t20 -95zM354 229q0 25 -9 45.5t-24 35.5t-34.5 23t-40.5 8q-15 0 -30.5 -4t-23.5 -9v-206q9 -4 21 -6.5t27 -2.5
q53 0 83.5 32t30.5 84z" />
    <glyph glyph-name="c" unicode="c" horiz-adv-x="458" 
d="M412 308q-49 29 -112 29q-51 0 -86.5 -29.5t-35.5 -81.5q0 -26 10.5 -46.5t28 -35t41 -22.5t49.5 -8q30 0 56.5 6.5t55.5 21.5l-12 -131q-22 -11 -54.5 -18t-71.5 -7q-50 0 -95 16.5t-80 48t-55.5 75.5t-20.5 100t20.5 101t55 76t80 47.5t94.5 16.5q45 0 81 -8.5
t63 -23.5z" />
    <glyph glyph-name="d" unicode="d" horiz-adv-x="551" 
d="M386 0l-3 33q-17 -23 -50 -34t-75 -11q-41 0 -81.5 15.5t-73 45.5t-53 73.5t-20.5 98.5t18.5 100.5t51.5 78t77.5 50t96.5 17.5q29 0 50 -5.5t35 -13.5v264h142v-712h-115zM359 313q-13 12 -34 20t-48 8q-45 0 -75.5 -31.5t-30.5 -81.5t30.5 -81.5t75.5 -31.5
q26 0 47 8.5t35 22.5v167z" />
    <glyph glyph-name="e" unicode="e" horiz-adv-x="497" 
d="M468 287q0 -23 -5 -45l-59 -58h-226q4 -15 14 -30.5t26.5 -27.5t39.5 -20t53 -8q39 0 70.5 9t60.5 26l-13 -121q-23 -11 -56.5 -18.5t-78.5 -7.5q-56 0 -104 17t-84 49t-56.5 76.5t-20.5 100.5q0 55 19 99t51.5 75t75 47.5t90.5 16.5q47 0 84.5 -15t64 -40t40.5 -57.5
t14 -67.5zM334 288q0 27 -18.5 47.5t-50.5 20.5q-33 0 -58.5 -21.5t-33.5 -56.5h160q1 3 1 10z" />
    <glyph glyph-name="f" unicode="f" horiz-adv-x="367" 
d="M389 585q-27 12 -66 12q-48 0 -73 -28.5t-25 -74.5v-41h116l-10 -120h-106v-333h-144v333h-70v120h70v23q0 62 18 108t50 76t76 45t96 15q44 0 78 -13z" />
    <glyph glyph-name="g" unicode="g" horiz-adv-x="485" 
d="M459 -75q0 -35 -15.5 -65t-44 -52t-68.5 -34.5t-89 -12.5q-50 0 -90.5 13.5t-69 36.5t-44.5 54.5t-16 67.5q0 49 25 82.5t63 45.5l-52 52q3 23 19 40.5t33 27.5q-26 18 -44.5 48.5t-18.5 69.5q0 37 12.5 68t36.5 53.5t58.5 35t78.5 12.5q20 0 36 -2.5t31 -6.5t31 -6
t34 -2q24 0 44 4.5t35 12.5l10 -115q-5 -5 -18.5 -8t-25.5 -2q8 -14 8 -39q0 -33 -11 -60.5t-31 -48.5t-47 -34t-60 -16q-14 -1 -23 -5t-9 -13q0 -10 12 -14l73 -25q66 -23 101.5 -61.5t35.5 -101.5zM297 305q0 25 -18 42.5t-46 17.5q-27 0 -45.5 -17.5t-18.5 -42.5
t18.5 -42.5t45.5 -17.5q26 0 45 17.5t19 42.5zM327 -77q0 18 -13 33.5t-37 22.5l-60 17q-29 -2 -48.5 -19.5t-19.5 -45.5q0 -26 22.5 -45t67.5 -19q43 0 65.5 17t22.5 39z" />
    <glyph glyph-name="h" unicode="h" horiz-adv-x="530" 
d="M338 0v270q0 25 -17 44t-52 19q-34 0 -54 -19t-20 -46v-268h-145v712h145v-289q22 20 51 31t71 11q37 0 68 -11.5t53 -32.5t34.5 -51.5t12.5 -67.5v-302h-147z" />
    <glyph glyph-name="i" unicode="i" horiz-adv-x="263" 
d="M207 602q0 -9 -8.5 -22t-20.5 -25t-25 -20t-22 -8t-22 8t-24.5 20t-20 25t-8.5 22t8.5 22t20 25t24.5 20.5t22 8.5t22 -8.5t25 -20.5t20.5 -25t8.5 -22zM58 0v453h148v-453h-148z" />
    <glyph glyph-name="j" unicode="j" horiz-adv-x="262" 
d="M206 602q0 -9 -8.5 -22t-20 -25t-24.5 -20t-22 -8t-22 8t-25 20t-20.5 25t-8.5 22t8.5 22t20.5 25t25 20.5t22 8.5t22 -8.5t24.5 -20.5t20 -25t8.5 -22zM205 -27q0 -44 -13 -80.5t-36 -63.5t-54 -44t-67 -23l-63 100q43 8 64.5 37.5t21.5 83.5v470h147v-480v0z" />
    <glyph glyph-name="k" unicode="k" horiz-adv-x="502" 
d="M330 0l-135 183v-183h-145v712h145v-444l137 185h155l-156 -217l170 -236h-171z" />
    <glyph glyph-name="l" unicode="l" horiz-adv-x="285" 
d="M196 -20q-23 1 -47 12.5t-44 32t-32.5 50.5t-12.5 69v568h145v-557q0 -32 16.5 -50t39.5 -23z" />
    <glyph glyph-name="m" unicode="m" horiz-adv-x="802" 
d="M610 0v279q0 24 -17.5 38.5t-47.5 14.5q-31 0 -50.5 -15t-19.5 -40v-277h-147v279q0 24 -17.5 38.5t-49.5 14.5q-30 0 -49.5 -15t-19.5 -40v-277h-147v453h129l4 -45q17 23 50.5 40t81.5 17q46 0 78 -17t51 -41q20 24 60.5 41t90.5 17q80 0 123.5 -43.5t43.5 -112.5v-309
h-147z" />
    <glyph glyph-name="n" unicode="n" horiz-adv-x="527" 
d="M335 0v270q0 25 -17 44t-52 19q-34 0 -54 -19t-20 -46v-268h-147v453h129l4 -45q20 26 53.5 41.5t82.5 15.5q37 0 68 -11.5t53 -32.5t34.5 -51.5t12.5 -67.5v-302h-147z" />
    <glyph glyph-name="o" unicode="o" horiz-adv-x="553" 
d="M523 226q0 -53 -19.5 -97t-52.5 -76t-78 -49.5t-96 -17.5t-96 17.5t-78.5 49.5t-53 76t-19.5 97t19.5 97.5t53 76.5t78.5 49.5t96 17.5t96 -17.5t78 -49.5t52.5 -76.5t19.5 -97.5zM382 226q0 25 -8.5 46.5t-23 37.5t-33.5 24.5t-40 8.5t-40.5 -8.5t-33.5 -24.5
t-22.5 -37.5t-8.5 -46.5t8.5 -46t22.5 -36.5t33.5 -24t40.5 -8.5t40 8.5t33.5 24t23 36.5t8.5 46z" />
    <glyph glyph-name="p" unicode="p" horiz-adv-x="551" 
d="M521 232q0 -56 -18.5 -101t-51.5 -77.5t-77.5 -50t-96.5 -17.5q-29 0 -50 5.5t-35 13.5v-236h-142v684h115l4 -33q17 23 50 34t74 11q40 0 81 -15.5t73.5 -45.5t53 -73.5t20.5 -98.5zM380 225q0 25 -8 45.5t-22.5 35.5t-34 23.5t-41.5 8.5q-26 0 -46.5 -8.5t-35.5 -22.5
v-167q14 -12 35 -20t47 -8q22 0 41.5 8.5t34 23.5t22.5 35.5t8 45.5z" />
    <glyph glyph-name="q" unicode="q" horiz-adv-x="525" 
d="M333 -231v226q-11 -4 -24 -6.5t-30 -2.5q-52 0 -97.5 17.5t-79 49t-53 76.5t-19.5 100t20 99t53.5 75t78 47.5t94.5 16.5q32 0 63 -6.5t53 -17.5l40 23h43v-697h-142zM333 327q-10 5 -25.5 9t-31.5 4q-43 0 -74 -30.5t-31 -81.5q0 -27 9 -48.5t24 -36.5t34.5 -23t40.5 -8
q15 0 29 3t25 10v202z" />
    <glyph glyph-name="r" unicode="r" horiz-adv-x="378" 
d="M349 334q-29 0 -56 -9t-48 -27.5t-33.5 -48t-12.5 -70.5v-179h-146v453h135l4 -71q21 43 61.5 61t96.5 18l11 -127h-12z" />
    <glyph glyph-name="s" unicode="s" horiz-adv-x="393" 
d="M364 131q0 -29 -10.5 -55.5t-32.5 -46.5t-56 -31.5t-80 -11.5q-47 0 -85 11.5t-61 26.5l-13 128q29 -25 69.5 -40.5t83.5 -15.5q23 0 35.5 9.5t12.5 23.5q0 17 -13 26t-39 19q-63 22 -98.5 59t-35.5 91q0 31 12 57.5t34 45.5t53 29.5t68 10.5q42 0 75 -9.5t49 -19.5
l-11 -111q-17 12 -44 21.5t-60 9.5q-20 0 -31 -9t-11 -23t12 -23t42 -19q66 -21 100.5 -59t34.5 -94z" />
    <glyph glyph-name="t" unicode="t" horiz-adv-x="389" 
d="M361 333h-129v-164q0 -26 15.5 -39.5t40.5 -13.5q29 0 47 7l-11 -120q-24 -11 -69 -11q-38 0 -68.5 11.5t-53 32.5t-34.5 49.5t-12 62.5v185h-77v120h80v88l140 53v-141h142z" />
    <glyph glyph-name="u" unicode="u" horiz-adv-x="527" 
d="M353 0l-4 45q-20 -26 -53.5 -41.5t-82.5 -15.5q-37 0 -68 11.5t-53 32.5t-34.5 51t-12.5 68v302h147v-270q0 -25 17 -44t52 -19q34 0 54 19t20 46v268h147v-453h-129z" />
    <glyph glyph-name="v" unicode="v" horiz-adv-x="489" 
d="M299 -4h-110l-174 457h142l63 -172q7 -19 14 -41t12 -45h2q6 23 13 45l13 41l64 172h136z" />
    <glyph glyph-name="w" unicode="w" horiz-adv-x="732" 
d="M554 -4h-100l-60 179q-8 21 -14.5 43.5t-12.5 48.5h-2q-6 -26 -12.5 -48.5t-13.5 -42.5l-60 -180h-101l-158 457h134l56 -171l12 -41.5t10 -43.5h2q5 21 11 43.5t12 41.5l56 171h111l57 -170q7 -21 12 -43l10 -43h2l10.5 44t12.5 42l56 170h128z" />
    <glyph glyph-name="x" unicode="x" horiz-adv-x="461" 
d="M299 0l-51 87l-10.5 22l-10.5 23h-2q-5 -11 -11.5 -23l-11.5 -22l-50 -87h-137l134 226l-129 227h146l47 -80l10 -19.5t10 -20.5h2q5 11 10.5 20t11.5 20l46 80h137l-128 -218l134 -235h-147z" />
    <glyph glyph-name="y" unicode="y" horiz-adv-x="505" 
d="M331 39q-46 -120 -104 -189.5t-140 -89.5l-60 95q26 9 48 21.5t40.5 32t35.5 47.5t33 67l-169 430h145l67 -177q8 -20 14.5 -41.5l13.5 -46.5h2q6 24 12.5 45.5t14.5 41.5l68 178h138z" />
    <glyph glyph-name="z" unicode="z" horiz-adv-x="437" 
d="M28 0v28l109 202q14 26 29.5 52l29.5 48l-1 2h-150v121h346v-28l-110 -203q-14 -26 -28.5 -50l-30.5 -49l1 -2h183v-121h-378z" />
    <glyph glyph-name="braceleft" unicode="{" horiz-adv-x="375" 
d="M336 -225q-115 0 -176 71.5t-61 194.5q0 69 -19 118t-68 81q49 32 68 81.5t19 118.5q0 61 15.5 110t45.5 83.5t74.5 53t101.5 18.5l18 -117q-30 0 -51 -10.5t-34.5 -28.5t-20 -43t-6.5 -54q0 -78 -18.5 -128.5t-58.5 -83.5q40 -32 58.5 -83t18.5 -129q0 -59 26.5 -97
t85.5 -38z" />
    <glyph glyph-name="bar" unicode="|" horiz-adv-x="237" 
d="M63 -231v943h111v-943h-111z" />
    <glyph glyph-name="braceright" unicode="}" horiz-adv-x="375" 
d="M364 240q-49 -32 -68 -81t-19 -118q0 -123 -61.5 -194.5t-175.5 -71.5l-18 118q59 0 85 38t26 97q0 78 18.5 129t58.5 83q-40 33 -58.5 83.5t-18.5 128.5q0 29 -6 54t-19.5 43t-34.5 28.5t-51 10.5l18 117q57 0 101 -18.5t74.5 -53t46 -83.5t15.5 -110q0 -69 19 -118.5
t68 -81.5z" />
    <glyph glyph-name="asciitilde" unicode="~" horiz-adv-x="406" 
d="M341 242q-38 -26 -73.5 -38.5t-81.5 -16.5l-12 68q-32 -5 -66.5 -17.5t-66.5 -32.5l25 99q39 23 74 36.5t81 17.5l12 -69q33 5 67 18.5t66 32.5z" />
    <glyph glyph-name="Adieresis" unicode="&#xc4;" horiz-adv-x="629" 
d="M465 0l-50 133h-210l-49 -133h-146l251 643h107l251 -643h-154zM331 378q-5 14 -10 31l-10 34h-2q-4 -17 -9.5 -34t-10.5 -31l-46 -128h134zM472 766q0 -8 -7.5 -19t-18 -21.5t-22 -18t-19.5 -7.5t-19 7.5t-21.5 18t-18 21.5t-7.5 19t7.5 19.5t18 22t21.5 18t19 7.5
t19.5 -7.5t22 -18t18 -22t7.5 -19.5zM292 766q0 -8 -7.5 -19t-18 -21.5t-21.5 -18t-19 -7.5t-19 7.5t-21.5 18t-18 21.5t-7.5 19t7.5 19.5t18 22t21.5 18t19 7.5t19 -7.5t21.5 -18t18 -22t7.5 -19.5z" />
    <glyph glyph-name="Aring" unicode="&#xc5;" horiz-adv-x="629" 
d="M465 0l-50 133h-210l-49 -133h-146l251 643h107l251 -643h-154zM331 378q-5 14 -10 31l-10 34h-2q-4 -17 -9.5 -34t-10.5 -31l-46 -128h134zM440 809q0 -26 -10 -48.5t-27 -39t-40 -26.5t-48 -10q-26 0 -49 10t-40 26.5t-27 39t-10 48.5t10 48.5t27 39.5t40 26.5t49 9.5
q25 0 48 -9.5t40 -26.5t27 -39.5t10 -48.5zM376 809q0 27 -17.5 44t-43.5 17q-27 0 -44 -17t-17 -44q0 -26 17 -43.5t44 -17.5q26 0 43.5 17.5t17.5 43.5z" />
    <glyph glyph-name="Ccedilla" unicode="&#xc7;" horiz-adv-x="593" 
d="M553 479q-25 16 -62.5 28t-89.5 12q-44 0 -82 -14t-66 -40.5t-44.5 -63.5t-16.5 -82t16.5 -81.5t45 -63t68 -40.5t84.5 -14q52 0 91.5 10.5t65.5 27.5l-13 -139q-26 -16 -67 -24.5t-98 -9.5l-2 -12q18 -1 35.5 -9t31 -21.5t22 -32.5t8.5 -41q0 -27 -10 -47t-26.5 -33.5
t-37 -20t-42.5 -6.5q-26 0 -44 5.5t-34 16.5l10 65q17 -12 32 -16t32 -4q19 0 30 11t11 28q0 18 -12.5 28.5t-32.5 10.5q-8 0 -15.5 -0.5t-18.5 -2.5l13 84q-57 7 -111 32t-96 66.5t-67.5 99.5t-25.5 133q0 82 31 144.5t80.5 104.5t111.5 63.5t125 21.5q60 0 106 -11t75 -28
z" />
    <glyph glyph-name="Eacute" unicode="&#xc9;" horiz-adv-x="475" 
d="M55 0v638h372v-127h-217v-127h177v-129h-177v-128h245v-127h-400zM405 779q-47 -32 -89 -49t-94 -30l-65 64q27 7 56.5 18.5t59 26.5t57.5 34t51 41l24 -105v0z" />
    <glyph glyph-name="Ntilde" unicode="&#xd1;" horiz-adv-x="709" 
d="M576 -7l-248 272l-61.5 70.5l-57.5 69.5l-2 -1q2 -34 2.5 -69t0.5 -65v-270h-155v638h125l216 -238l52.5 -59.5l51.5 -62.5l2 1q-3 57 -3 119v240h155v-645h-78zM489 755q-39 -26 -74 -38.5t-82 -16.5l-12 68q-32 -5 -66.5 -17.5t-66.5 -32.5l25 99q39 23 74 36.5
t82 17.5l11 -69q33 5 67 18.5t66 32.5z" />
    <glyph glyph-name="Odieresis" unicode="&#xd6;" horiz-adv-x="757" 
d="M722 320q0 -77 -29 -139t-77 -105.5t-110 -67t-128 -23.5t-128 23.5t-109.5 67t-76.5 105.5t-29 139q0 76 29 138t76.5 105t109.5 66.5t128 23.5t128 -23.5t110 -66.5t77 -105t29 -138zM565 320q0 45 -15.5 81t-42 62t-60 40t-69.5 14t-69.5 -14t-59.5 -40t-41.5 -62
t-15.5 -81t15.5 -81.5t41.5 -62.5t59.5 -40t69.5 -14t69.5 14t60 40t42 62.5t15.5 81.5zM535 766q0 -8 -7.5 -19t-18 -21.5t-22 -18t-19.5 -7.5t-19 7.5t-21.5 18t-18 21.5t-7.5 19t7.5 19.5t18 22t21.5 18t19 7.5t19.5 -7.5t22 -18t18 -22t7.5 -19.5zM355 766
q0 -8 -7.5 -19t-18 -21.5t-21.5 -18t-19 -7.5t-19 7.5t-21.5 18t-18 21.5t-7.5 19t7.5 19.5t18 22t21.5 18t19 7.5t19 -7.5t21.5 -18t18 -22t7.5 -19.5z" />
    <glyph glyph-name="Udieresis" unicode="&#xdc;" horiz-adv-x="663" 
d="M608 218q0 -53 -22 -96t-59.5 -73t-88 -46.5t-107.5 -16.5t-107.5 16.5t-88 46.5t-59 73t-21.5 96v420h155v-406q0 -49 33.5 -79.5t89.5 -30.5t90 30.5t34 79.5v406h151v-420v0zM490 766q0 -8 -7.5 -19t-18 -21.5t-22 -18t-19.5 -7.5t-19 7.5t-21.5 18t-18 21.5t-7.5 19
t7.5 19.5t18 22t21.5 18t19 7.5t19.5 -7.5t22 -18t18 -22t7.5 -19.5zM310 766q0 -8 -7.5 -19t-18 -21.5t-21.5 -18t-19 -7.5t-19 7.5t-21.5 18t-18 21.5t-7.5 19t7.5 19.5t18 22t21.5 18t19 7.5t19 -7.5t21.5 -18t18 -22t7.5 -19.5z" />
    <glyph glyph-name="aacute" unicode="&#xe1;" horiz-adv-x="484" 
d="M416 -14q-68 5 -96 51q-23 -26 -56.5 -38.5t-70.5 -12.5q-35 0 -64.5 10t-52 29.5t-35 47t-12.5 62.5q0 63 43.5 101.5t110.5 45.5l90 9v16q0 21 -16.5 34t-54.5 13q-39 0 -75 -9t-58 -22l-11 112q26 14 68 23t84 9q95 0 150 -47t55 -135v-130q0 -30 14 -46.5t38 -20.5z
M277 198l-61 -6q-32 -3 -45.5 -20.5t-13.5 -38.5q0 -18 13.5 -31t34.5 -13q27 0 49.5 19t22.5 48v42zM336 584q-40 -28 -75.5 -42t-80.5 -25l-55 54q45 13 98 38.5t92 63.5l21 -89v0z" />
    <glyph glyph-name="agrave" unicode="&#xe0;" horiz-adv-x="484" 
d="M416 -14q-68 5 -96 51q-23 -26 -56.5 -38.5t-70.5 -12.5q-35 0 -64.5 10t-52 29.5t-35 47t-12.5 62.5q0 63 43.5 101.5t110.5 45.5l90 9v16q0 21 -16.5 34t-54.5 13q-39 0 -75 -9t-58 -22l-11 112q26 14 68 23t84 9q95 0 150 -47t55 -135v-130q0 -30 14 -46.5t38 -20.5z
M277 198l-61 -6q-32 -3 -45.5 -20.5t-13.5 -38.5q0 -18 13.5 -31t34.5 -13q27 0 49.5 19t22.5 48v42zM230 517q-45 11 -80.5 25t-75.5 42l21 89q39 -38 92 -63.5t98 -38.5z" />
    <glyph glyph-name="acircumflex" unicode="&#xe2;" horiz-adv-x="484" 
d="M416 -14q-68 5 -96 51q-23 -26 -56.5 -38.5t-70.5 -12.5q-35 0 -64.5 10t-52 29.5t-35 47t-12.5 62.5q0 63 43.5 101.5t110.5 45.5l90 9v16q0 21 -16.5 34t-54.5 13q-39 0 -75 -9t-58 -22l-11 112q26 14 68 23t84 9q95 0 150 -47t55 -135v-130q0 -30 14 -46.5t38 -20.5z
M277 198l-61 -6q-32 -3 -45.5 -20.5t-13.5 -38.5q0 -18 13.5 -31t34.5 -13q27 0 49.5 19t22.5 48v42zM295 517q-20 10 -38 21t-35 30q-18 -19 -36 -30t-38 -21l-53 52q34 15 67.5 43.5t59.5 66.5q26 -38 59 -66.5t67 -43.5z" />
    <glyph glyph-name="adieresis" unicode="&#xe4;" horiz-adv-x="484" 
d="M416 -14q-68 5 -96 51q-23 -26 -56.5 -38.5t-70.5 -12.5q-35 0 -64.5 10t-52 29.5t-35 47t-12.5 62.5q0 63 43.5 101.5t110.5 45.5l90 9v16q0 21 -16.5 34t-54.5 13q-39 0 -75 -9t-58 -22l-11 112q26 14 68 23t84 9q95 0 150 -47t55 -135v-130q0 -30 14 -46.5t38 -20.5z
M277 198l-61 -6q-32 -3 -45.5 -20.5t-13.5 -38.5q0 -18 13.5 -31t34.5 -13q27 0 49.5 19t22.5 48v42zM356 573q0 -6 -6 -15.5t-15 -18.5t-19 -15.5t-17 -6.5q-6 0 -15.5 6.5t-18.5 15.5t-15.5 18.5t-6.5 15.5q0 7 6.5 16.5t15.5 18.5t18.5 15.5t15.5 6.5q7 0 17 -6.5
t19 -15.5t15 -18.5t6 -16.5zM203 573q0 -6 -6 -15.5t-15 -18.5t-18.5 -15.5t-16.5 -6.5t-16.5 6.5t-18.5 15.5t-15 18.5t-6 15.5q0 7 6 16.5t15 18.5t18.5 15.5t16.5 6.5t16.5 -6.5t18.5 -15.5t15 -18.5t6 -16.5z" />
    <glyph glyph-name="atilde" unicode="&#xe3;" horiz-adv-x="484" 
d="M416 -14q-68 5 -96 51q-23 -26 -56.5 -38.5t-70.5 -12.5q-35 0 -64.5 10t-52 29.5t-35 47t-12.5 62.5q0 63 43.5 101.5t110.5 45.5l90 9v16q0 21 -16.5 34t-54.5 13q-39 0 -75 -9t-58 -22l-11 112q26 14 68 23t84 9q95 0 150 -47t55 -135v-130q0 -30 14 -46.5t38 -20.5z
M277 198l-61 -6q-32 -3 -45.5 -20.5t-13.5 -38.5q0 -18 13.5 -31t34.5 -13q27 0 49.5 19t22.5 48v42zM350 564q-33 -22 -63 -33t-70 -14l-10 58q-27 -4 -56 -15t-57 -28l21 84q33 20 63 31.5t70 14.5l9 -58q29 5 58 16t55 27z" />
    <glyph glyph-name="aring" unicode="&#xe5;" horiz-adv-x="484" 
d="M416 -14q-68 5 -96 51q-23 -26 -56.5 -38.5t-70.5 -12.5q-35 0 -64.5 10t-52 29.5t-35 47t-12.5 62.5q0 63 43.5 101.5t110.5 45.5l90 9v16q0 21 -16.5 34t-54.5 13q-39 0 -75 -9t-58 -22l-11 112q26 14 68 23t84 9q95 0 150 -47t55 -135v-130q0 -30 14 -46.5t38 -20.5z
M277 198l-61 -6q-32 -3 -45.5 -20.5t-13.5 -38.5q0 -18 13.5 -31t34.5 -13q27 0 49.5 19t22.5 48v42zM325 610q0 -22 -8.5 -41t-23 -33.5t-33.5 -23t-41 -8.5t-41.5 8.5t-34 23t-23 33.5t-8.5 41t8.5 41t23 33t34 22.5t41.5 8.5t41 -8.5t33.5 -22.5t23 -33t8.5 -41zM271 610
q0 23 -14.5 37t-37.5 14t-37.5 -14t-14.5 -37t14.5 -37.5t37.5 -14.5t37.5 14.5t14.5 37.5z" />
    <glyph glyph-name="ccedilla" unicode="&#xe7;" horiz-adv-x="458" 
d="M412 308q-49 29 -112 29q-51 0 -86.5 -29.5t-35.5 -81.5q0 -26 10.5 -46.5t28 -35t41 -22.5t49.5 -8q30 0 56.5 6.5t55.5 21.5l-12 -131q-23 -13 -57 -19t-66 -6l-1 -11q15 -1 30 -7.5t26.5 -18.5t18.5 -28t7 -35q0 -23 -8.5 -39.5t-22.5 -28t-31.5 -17t-36.5 -5.5
q-23 0 -37.5 4.5t-28.5 13.5l9 55q14 -11 26.5 -14t28.5 -3q15 0 24.5 9.5t9.5 23.5q0 15 -10.5 24t-27.5 9h-14t-16 -2l12 73q-44 6 -82.5 25.5t-67 49.5t-45.5 71t-17 91q0 56 20.5 101t55 76t80 47.5t94.5 16.5q45 0 81 -8.5t63 -23.5z" />
    <glyph glyph-name="eacute" unicode="&#xe9;" horiz-adv-x="497" 
d="M468 287q0 -23 -5 -45l-59 -58h-226q4 -15 14 -30.5t26.5 -27.5t39.5 -20t53 -8q39 0 70.5 9t60.5 26l-13 -121q-23 -11 -56.5 -18.5t-78.5 -7.5q-56 0 -104 17t-84 49t-56.5 76.5t-20.5 100.5q0 55 19 99t51.5 75t75 47.5t90.5 16.5q47 0 84.5 -15t64 -40t40.5 -57.5
t14 -67.5zM334 288q0 27 -18.5 47.5t-50.5 20.5q-33 0 -58.5 -21.5t-33.5 -56.5h160q1 3 1 10zM396 584q-40 -28 -75.5 -42t-79.5 -25l-56 54q46 13 98.5 38.5t92.5 63.5l20 -89v0z" />
    <glyph glyph-name="egrave" unicode="&#xe8;" horiz-adv-x="497" 
d="M468 287q0 -23 -5 -45l-59 -58h-226q4 -15 14 -30.5t26.5 -27.5t39.5 -20t53 -8q39 0 70.5 9t60.5 26l-13 -121q-23 -11 -56.5 -18.5t-78.5 -7.5q-56 0 -104 17t-84 49t-56.5 76.5t-20.5 100.5q0 55 19 99t51.5 75t75 47.5t90.5 16.5q47 0 84.5 -15t64 -40t40.5 -57.5
t14 -67.5zM334 288q0 27 -18.5 47.5t-50.5 20.5q-33 0 -58.5 -21.5t-33.5 -56.5h160q1 3 1 10zM287 517q-45 11 -80.5 25t-75.5 42l21 89q40 -38 92.5 -63.5t98.5 -38.5z" />
    <glyph glyph-name="ecircumflex" unicode="&#xea;" horiz-adv-x="497" 
d="M468 287q0 -23 -5 -45l-59 -58h-226q4 -15 14 -30.5t26.5 -27.5t39.5 -20t53 -8q39 0 70.5 9t60.5 26l-13 -121q-23 -11 -56.5 -18.5t-78.5 -7.5q-56 0 -104 17t-84 49t-56.5 76.5t-20.5 100.5q0 55 19 99t51.5 75t75 47.5t90.5 16.5q47 0 84.5 -15t64 -40t40.5 -57.5
t14 -67.5zM334 288q0 27 -18.5 47.5t-50.5 20.5q-33 0 -58.5 -21.5t-33.5 -56.5h160q1 3 1 10zM338 517q-20 10 -38 21t-36 30q-18 -19 -36 -30t-38 -21l-53 52q34 15 67.5 43.5t59.5 66.5q26 -38 59.5 -66.5t67.5 -43.5z" />
    <glyph glyph-name="edieresis" unicode="&#xeb;" horiz-adv-x="497" 
d="M468 287q0 -23 -5 -45l-59 -58h-226q4 -15 14 -30.5t26.5 -27.5t39.5 -20t53 -8q39 0 70.5 9t60.5 26l-13 -121q-23 -11 -56.5 -18.5t-78.5 -7.5q-56 0 -104 17t-84 49t-56.5 76.5t-20.5 100.5q0 55 19 99t51.5 75t75 47.5t90.5 16.5q47 0 84.5 -15t64 -40t40.5 -57.5
t14 -67.5zM334 288q0 27 -18.5 47.5t-50.5 20.5q-33 0 -58.5 -21.5t-33.5 -56.5h160q1 3 1 10zM395 573q0 -6 -6 -15.5t-15 -18.5t-19 -15.5t-17 -6.5q-6 0 -15.5 6.5t-18.5 15.5t-15.5 18.5t-6.5 15.5q0 7 6.5 16.5t15.5 18.5t18.5 15.5t15.5 6.5q7 0 17 -6.5t19 -15.5
t15 -18.5t6 -16.5zM242 573q0 -6 -6 -15.5t-15 -18.5t-18.5 -15.5t-16.5 -6.5t-16.5 6.5t-18.5 15.5t-15 18.5t-6 15.5q0 7 6 16.5t15 18.5t18.5 15.5t16.5 6.5t16.5 -6.5t18.5 -15.5t15 -18.5t6 -16.5z" />
    <glyph glyph-name="iacute" unicode="&#xed;" horiz-adv-x="263" 
d="M58 0v453h148v-453h-148zM264 584q-40 -28 -75.5 -42t-80.5 -25l-55 54q45 13 98 38.5t92 63.5l21 -89v0z" />
    <glyph glyph-name="igrave" unicode="&#xec;" horiz-adv-x="263" 
d="M58 0v453h148v-453h-148zM156 517q-45 11 -80 25t-76 42l21 89q40 -38 92.5 -63.5t98.5 -38.5z" />
    <glyph glyph-name="icircumflex" unicode="&#xee;" horiz-adv-x="263" 
d="M58 0v453h148v-453h-148zM205 517q-20 10 -38 21t-35 30q-18 -19 -36 -30t-38 -21l-53 52q34 15 67.5 43.5t59.5 66.5q26 -38 59 -66.5t67 -43.5z" />
    <glyph glyph-name="idieresis" unicode="&#xef;" horiz-adv-x="263" 
d="M58 0v453h148v-453h-148zM264 573q0 -6 -6 -15.5t-15 -18.5t-19 -15.5t-17 -6.5t-16.5 6.5t-18.5 15.5t-15 18.5t-6 15.5q0 7 6 16.5t15 18.5t18.5 15.5t16.5 6.5t17 -6.5t19 -15.5t15 -18.5t6 -16.5zM111 573q0 -6 -6 -15.5t-15 -18.5t-18.5 -15.5t-16.5 -6.5t-16.5 6.5
t-18.5 15.5t-15 18.5t-6 15.5q0 7 6 16.5t15 18.5t18.5 15.5t16.5 6.5t16.5 -6.5t18.5 -15.5t15 -18.5t6 -16.5z" />
    <glyph glyph-name="ntilde" unicode="&#xf1;" horiz-adv-x="527" 
d="M335 0v270q0 25 -17 44t-52 19q-34 0 -54 -19t-20 -46v-268h-147v453h129l4 -45q20 26 53.5 41.5t82.5 15.5q37 0 68 -11.5t53 -32.5t34.5 -51.5t12.5 -67.5v-302h-147zM379 564q-33 -22 -63 -33t-70 -14l-10 58q-27 -4 -56 -15t-57 -28l21 84q33 20 63 31.5t70 14.5
l9 -58q29 5 58 16t55 27z" />
    <glyph glyph-name="oacute" unicode="&#xf3;" horiz-adv-x="553" 
d="M523 226q0 -53 -19.5 -97t-52.5 -76t-78 -49.5t-96 -17.5t-96 17.5t-78.5 49.5t-53 76t-19.5 97t19.5 97.5t53 76.5t78.5 49.5t96 17.5t96 -17.5t78 -49.5t52.5 -76.5t19.5 -97.5zM382 226q0 25 -8.5 46.5t-23 37.5t-33.5 24.5t-40 8.5t-40.5 -8.5t-33.5 -24.5
t-22.5 -37.5t-8.5 -46.5t8.5 -46t22.5 -36.5t33.5 -24t40.5 -8.5t40 8.5t33.5 24t23 36.5t8.5 46zM416 584q-40 -28 -75.5 -42t-80.5 -25l-55 54q45 13 98 38.5t92 63.5l21 -89v0z" />
    <glyph glyph-name="ograve" unicode="&#xf2;" horiz-adv-x="553" 
d="M523 226q0 -53 -19.5 -97t-52.5 -76t-78 -49.5t-96 -17.5t-96 17.5t-78.5 49.5t-53 76t-19.5 97t19.5 97.5t53 76.5t78.5 49.5t96 17.5t96 -17.5t78 -49.5t52.5 -76.5t19.5 -97.5zM382 226q0 25 -8.5 46.5t-23 37.5t-33.5 24.5t-40 8.5t-40.5 -8.5t-33.5 -24.5
t-22.5 -37.5t-8.5 -46.5t8.5 -46t22.5 -36.5t33.5 -24t40.5 -8.5t40 8.5t33.5 24t23 36.5t8.5 46zM296 517q-45 11 -80.5 25t-75.5 42l21 89q39 -38 92 -63.5t98 -38.5z" />
    <glyph glyph-name="ocircumflex" unicode="&#xf4;" horiz-adv-x="553" 
d="M523 226q0 -53 -19.5 -97t-52.5 -76t-78 -49.5t-96 -17.5t-96 17.5t-78.5 49.5t-53 76t-19.5 97t19.5 97.5t53 76.5t78.5 49.5t96 17.5t96 -17.5t78 -49.5t52.5 -76.5t19.5 -97.5zM382 226q0 25 -8.5 46.5t-23 37.5t-33.5 24.5t-40 8.5t-40.5 -8.5t-33.5 -24.5
t-22.5 -37.5t-8.5 -46.5t8.5 -46t22.5 -36.5t33.5 -24t40.5 -8.5t40 8.5t33.5 24t23 36.5t8.5 46zM349 517q-20 10 -38 21t-35 30q-18 -19 -36 -30t-38 -21l-53 52q34 15 67.5 43.5t59.5 66.5q26 -38 59 -66.5t67 -43.5z" />
    <glyph glyph-name="odieresis" unicode="&#xf6;" horiz-adv-x="553" 
d="M523 226q0 -53 -19.5 -97t-52.5 -76t-78 -49.5t-96 -17.5t-96 17.5t-78.5 49.5t-53 76t-19.5 97t19.5 97.5t53 76.5t78.5 49.5t96 17.5t96 -17.5t78 -49.5t52.5 -76.5t19.5 -97.5zM382 226q0 25 -8.5 46.5t-23 37.5t-33.5 24.5t-40 8.5t-40.5 -8.5t-33.5 -24.5
t-22.5 -37.5t-8.5 -46.5t8.5 -46t22.5 -36.5t33.5 -24t40.5 -8.5t40 8.5t33.5 24t23 36.5t8.5 46zM408 573q0 -6 -6 -15.5t-15 -18.5t-19 -15.5t-17 -6.5t-16.5 6.5t-18.5 15.5t-15 18.5t-6 15.5q0 7 6 16.5t15 18.5t18.5 15.5t16.5 6.5t17 -6.5t19 -15.5t15 -18.5t6 -16.5z
M255 573q0 -6 -6 -15.5t-15 -18.5t-18.5 -15.5t-16.5 -6.5t-16.5 6.5t-18.5 15.5t-15 18.5t-6 15.5q0 7 6 16.5t15 18.5t18.5 15.5t16.5 6.5t16.5 -6.5t18.5 -15.5t15 -18.5t6 -16.5z" />
    <glyph glyph-name="otilde" unicode="&#xf5;" horiz-adv-x="553" 
d="M523 226q0 -53 -19.5 -97t-52.5 -76t-78 -49.5t-96 -17.5t-96 17.5t-78.5 49.5t-53 76t-19.5 97t19.5 97.5t53 76.5t78.5 49.5t96 17.5t96 -17.5t78 -49.5t52.5 -76.5t19.5 -97.5zM382 226q0 25 -8.5 46.5t-23 37.5t-33.5 24.5t-40 8.5t-40.5 -8.5t-33.5 -24.5
t-22.5 -37.5t-8.5 -46.5t8.5 -46t22.5 -36.5t33.5 -24t40.5 -8.5t40 8.5t33.5 24t23 36.5t8.5 46zM395 564q-33 -22 -63 -33t-69 -14l-10 58q-27 -4 -56.5 -15t-57.5 -28l22 84q33 20 63 31.5t69 14.5l10 -58q28 5 57 16t56 27z" />
    <glyph glyph-name="uacute" unicode="&#xfa;" horiz-adv-x="527" 
d="M353 0l-4 45q-20 -26 -53.5 -41.5t-82.5 -15.5q-37 0 -68 11.5t-53 32.5t-34.5 51t-12.5 68v302h147v-270q0 -25 17 -44t52 -19q34 0 54 19t20 46v268h147v-453h-129zM405 584q-40 -28 -75.5 -42t-79.5 -25l-56 54q46 13 98.5 38.5t92.5 63.5l20 -89v0z" />
    <glyph glyph-name="ugrave" unicode="&#xf9;" horiz-adv-x="527" 
d="M353 0l-4 45q-20 -26 -53.5 -41.5t-82.5 -15.5q-37 0 -68 11.5t-53 32.5t-34.5 51t-12.5 68v302h147v-270q0 -25 17 -44t52 -19q34 0 54 19t20 46v268h147v-453h-129zM278 517q-45 11 -80 25t-76 42l21 89q40 -38 92.5 -63.5t98.5 -38.5z" />
    <glyph glyph-name="ucircumflex" unicode="&#xfb;" horiz-adv-x="527" 
d="M353 0l-4 45q-20 -26 -53.5 -41.5t-82.5 -15.5q-37 0 -68 11.5t-53 32.5t-34.5 51t-12.5 68v302h147v-270q0 -25 17 -44t52 -19q34 0 54 19t20 46v268h147v-453h-129zM338 517q-20 10 -38 21t-36 30q-18 -19 -36 -30t-38 -21l-53 52q34 15 67.5 43.5t59.5 66.5
q26 -38 59.5 -66.5t67.5 -43.5z" />
    <glyph glyph-name="udieresis" unicode="&#xfc;" horiz-adv-x="527" 
d="M353 0l-4 45q-20 -26 -53.5 -41.5t-82.5 -15.5q-37 0 -68 11.5t-53 32.5t-34.5 51t-12.5 68v302h147v-270q0 -25 17 -44t52 -19q34 0 54 19t20 46v268h147v-453h-129zM398 573q0 -6 -6 -15.5t-15 -18.5t-19 -15.5t-17 -6.5q-6 0 -15.5 6.5t-18.5 15.5t-15.5 18.5
t-6.5 15.5q0 7 6.5 16.5t15.5 18.5t18.5 15.5t15.5 6.5q7 0 17 -6.5t19 -15.5t15 -18.5t6 -16.5zM245 573q0 -6 -6 -15.5t-15 -18.5t-18.5 -15.5t-16.5 -6.5t-16.5 6.5t-18.5 15.5t-15 18.5t-6 15.5q0 7 6 16.5t15 18.5t18.5 15.5t16.5 6.5t16.5 -6.5t18.5 -15.5t15 -18.5
t6 -16.5z" />
    <glyph glyph-name="dagger" unicode="&#x2020;" horiz-adv-x="387" 
d="M259 343l-20 -574h-91l-20 574l-119 -18v137l115 -18l-4 113h147l-4 -113l114 18v-137z" />
    <glyph glyph-name="degree" unicode="&#xb0;" horiz-adv-x="270" 
d="M248 543q0 -23 -9 -43.5t-24.5 -35.5t-36 -24t-43.5 -9t-43.5 9t-36 24t-24.5 35.5t-9 43.5t9 43.5t24.5 35.5t36 24t43.5 9t43.5 -9t36 -24t24.5 -35.5t9 -43.5zM190 543q0 24 -15.5 39.5t-39.5 15.5t-39.5 -15.5t-15.5 -39.5t15.5 -39.5t39.5 -15.5t39.5 15.5
t15.5 39.5z" />
    <glyph glyph-name="cent" unicode="&#xa2;" horiz-adv-x="458" 
d="M412 489q-51 30 -112 30q-51 0 -86.5 -30t-35.5 -82q0 -26 10.5 -46.5t28 -34.5t41 -22t49.5 -8q30 0 56.5 6.5t55.5 20.5l-12 -131q-34 -17 -85 -23v-87h-76v87q-44 6 -83.5 24.5t-69 49.5t-46.5 72t-17 92q0 52 17.5 93.5t47 72.5t68.5 49.5t83 24.5v90h76v-91
q59 -6 102 -29z" />
    <glyph glyph-name="sterling" unicode="&#xa3;" horiz-adv-x="439" 
d="M406 -11q-25 11 -61 16.5t-76 5.5q-41 0 -76 -5.5t-58 -14.5l-104 55q23 36 36.5 85t13.5 115v30h-70v80h70v51q0 62 18 108t49.5 76t75.5 45t96 15q21 0 40.5 -4t33.5 -11l-10 -120q-29 12 -69 12t-64.5 -28.5t-24.5 -68.5v-75h127l-7 -80h-120v-34q0 -37 -6 -67
t-15 -50q14 2 33 3.5t42 1.5q35 0 70 -5t64 -14z" />
    <glyph glyph-name="section" unicode="&#xa7;" horiz-adv-x="474" 
d="M437 -40q0 -40 -14.5 -74.5t-42.5 -60t-67.5 -40.5t-89.5 -15q-61 0 -96.5 10.5t-61.5 26.5l11 129q28 -17 61.5 -28t71.5 -11q42 0 60.5 16t18.5 39q0 8 -3 17.5t-12 19.5l-214 208l18 157q-17 23 -26.5 48t-9.5 60q0 40 15 74.5t42.5 60t67 40.5t89.5 15q61 0 97 -10.5
t62 -25.5l-12 -130q-28 18 -61.5 28.5t-70.5 10.5q-42 0 -61 -16t-19 -39q0 -8 4 -18.5t12 -18.5l213 -208l-18 -157q17 -23 26.5 -48t9.5 -60zM142 339l-7 -59l200 -196l8 61z" />
    <glyph glyph-name="bullet" unicode="&#x2022;" horiz-adv-x="420" 
d="M383 275q0 -38 -13.5 -69t-37 -53t-55 -34.5t-67.5 -12.5t-67 12.5t-54.5 34.5t-37 53t-13.5 69q0 37 13.5 68t37 53t54.5 34.5t67 12.5t67.5 -12.5t55 -34.5t37 -53t13.5 -68z" />
    <glyph glyph-name="paragraph" unicode="&#xb6;" horiz-adv-x="503" 
d="M403 521v-548q0 -44 -13 -80.5t-36 -63.5t-54 -44t-67 -23l-63 100q43 8 64.5 37.5t21.5 83.5v260h-8q-42 0 -81 13.5t-69.5 39.5t-48.5 62.5t-18 83.5t18 84t48.5 63t69.5 40t81 14h232v-122h-77z" />
    <glyph glyph-name="germandbls" unicode="&#xdf;" horiz-adv-x="590" 
d="M561 131q0 -29 -10.5 -55.5t-32.5 -46.5t-56 -31.5t-80 -11.5q-47 0 -84 10.5t-57 24.5v119q23 -17 57 -30.5t78 -13.5q22 0 34.5 9.5t12.5 23.5q0 17 -12.5 26t-39.5 19q-63 22 -98.5 59t-35.5 91q0 30 10.5 54t28 41.5t39 27.5t43.5 13q7 21 7 49q0 17 -6 33t-16.5 29
t-26 20.5t-33.5 7.5q-42 0 -64.5 -32.5t-22.5 -84.5v-482h-141v462q0 121 59 189.5t170 68.5q54 0 95.5 -17t70 -47t43 -70t14.5 -86q0 -38 -5.5 -69t-13.5 -53q-50 0 -83 -14.5t-33 -37.5q0 -14 12 -23t42 -19q66 -21 100.5 -59t34.5 -94z" />
    <glyph glyph-name="registered" unicode="&#xae;" horiz-adv-x="470" 
d="M440 450q0 -44 -16 -81t-43.5 -64t-65 -42.5t-80.5 -15.5q-44 0 -81 15.5t-65 42.5t-43.5 64t-15.5 81t15.5 81.5t43.5 64.5t65 42t81 15q43 0 80.5 -15t65 -42t43.5 -64.5t16 -81.5zM392 450q0 35 -12 64t-33 50t-50 33t-62 12q-34 0 -63 -12t-50 -33t-33 -50t-12 -64
t12 -64t33 -50t50 -32.5t63 -11.5q33 0 62 12t50 33t33 50t12 63zM294 330l-60 90h-18v-88h-54v237h76q15 0 30 -5t27 -15t19 -23.5t7 -31.5q0 -20 -10 -35.5t-24 -24.5l54 -75zM264 494q0 14 -9 21t-22 7h-17v-56h17q13 0 22 7t9 21z" />
    <glyph glyph-name="copyright" unicode="&#xa9;" horiz-adv-x="596" 
d="M565 250q0 -58 -20.5 -106.5t-56.5 -84t-85 -55t-105 -19.5t-105 19.5t-85 55t-57 84t-21 106.5q0 59 21 108t57 84t85 54.5t105 19.5t105 -19.5t85 -54.5t56.5 -84t20.5 -108zM495 250q0 43 -14.5 79.5t-40.5 63.5t-62.5 42.5t-79.5 15.5q-44 0 -80.5 -15.5t-62.5 -42.5
t-40 -63.5t-14 -79.5q0 -42 14 -79t40 -64t62.5 -42.5t80.5 -15.5q43 0 79.5 15.5t62.5 42.5t40.5 64t14.5 79zM394 285q-14 10 -31 14.5t-36 4.5q-24 0 -41.5 -15t-17.5 -41t18 -41.5t45 -15.5q17 0 31.5 3.5t34.5 17.5l-9 -88q-12 -8 -30 -12.5t-38 -4.5q-30 0 -57 10
t-47.5 28.5t-32.5 45t-12 58.5t12 58.5t32.5 45t47 28.5t56.5 10q27 0 47.5 -6.5t34.5 -17.5z" />
    <glyph glyph-name="trademark" unicode="&#x2122;" horiz-adv-x="435" 
d="M353 453l-7 84l-42 -84h-21l-41 82l-6 -82h-51l15 185h42l53 -104l52 104h42l15 -185h-51zM120 591v-138h-51v139h-49v46h150v-47h-50z" />
    <glyph glyph-name="acute" unicode="&#xb4;" 
d="M336 579q-47 -32 -89 -49t-94 -30l-65 64q27 7 56.5 18.5t59 26.5t57.5 34t51 41l24 -105v0z" />
    <glyph glyph-name="dieresis" unicode="&#xa8;" 
d="M381 566q0 -8 -7.5 -19t-18 -21.5t-22 -18t-19.5 -7.5t-19 7.5t-21.5 18t-18 21.5t-7.5 19t7.5 19.5t18 22t21.5 18t19 7.5t19.5 -7.5t22 -18t18 -22t7.5 -19.5zM201 566q0 -8 -7.5 -19t-18 -21.5t-21.5 -18t-19 -7.5t-19 7.5t-21.5 18t-18 21.5t-7.5 19t7.5 19.5t18 22
t21.5 18t19 7.5t19 -7.5t21.5 -18t18 -22t7.5 -19.5z" />
    <glyph glyph-name="notequal" horiz-adv-x="689" 
d="M711 585q-27 12 -66 12q-48 0 -73 -28.5t-25 -74.5v-41h116l-10 -120h-106v-333h-145v333h-177v-333h-144v333h-70v120h70v23q0 51 14.5 93t42.5 72t68.5 46.5t91.5 16.5q31 0 52 -4.5t38 -12.5l-12 -122q-11 6 -29.5 11t-41.5 5q-35 0 -57.5 -26.5t-22.5 -64.5v-37h177
v23q0 62 18 108t50.5 76t76.5 45t96 15q44 0 78 -13z" />
    <glyph glyph-name="AE" unicode="&#xc6;" horiz-adv-x="830" 
d="M421 0v133h-187l-76 -133h-153l370 638h407v-127h-218v-127h178v-129h-178v-128h245v-127h-388zM422 507q-8 -23 -18 -45t-21 -42l-89 -168h127v170q0 23 1 42.5t2 42.5h-2z" />
    <glyph glyph-name="Oslash" unicode="&#xd8;" horiz-adv-x="757" 
d="M722 320q0 -77 -29 -139t-77 -105.5t-110 -67t-128 -23.5q-98 0 -181 49l-53 -66l-59 49l51 62q-46 44 -73.5 105t-27.5 136q0 76 29 138t76.5 105t109.5 66.5t128 23.5q99 0 182 -49l54 66l58 -48l-51 -63q46 -44 73.5 -104t27.5 -135zM577 320q0 38 -12 70.5t-32 58.5
l-249 -308q21 -11 45 -17.5t49 -6.5q39 0 74.5 14.5t63.5 41t44.5 64t16.5 83.5zM475 498q-45 25 -97 25q-39 0 -74.5 -14.5t-63 -41t-44 -64t-16.5 -83.5q0 -39 12 -72t33 -59l250 309v0z" />
    <glyph glyph-name="infinity" horiz-adv-x="885" 
d="M681 0v333h-134v-333h-145v333h-177v-333h-144v333h-70v120h70v23q0 51 14.5 93t42.5 72t68.5 46.5t91.5 16.5q31 0 52 -4.5t38 -12.5l-12 -122q-11 6 -29.5 11t-41.5 5q-35 0 -57.5 -26.5t-22.5 -64.5v-37h177v27q0 56 16.5 100.5t47.5 75.5t75.5 47.5t99.5 16.5
q34 0 61.5 -6.5t45.5 -16.5l-11 -122q-16 9 -38 15.5t-51 6.5q-51 0 -76 -29t-25 -74v-41h281v-453h-147z" />
    <glyph glyph-name="plusminus" unicode="&#xb1;" horiz-adv-x="948" 
d="M869 -18q-26 1 -52 12t-47 31.5t-34 50.5t-13 70v440q-23 13 -70 13q-48 0 -77 -32.5t-29 -85.5v-28h90l-10 -120h-80v-333h-145v333h-177v-333h-144v333h-70v120h70v23q0 51 14.5 93t42.5 72t68.5 46.5t91.5 16.5q31 0 52 -4.5t38 -12.5l-12 -122q-11 6 -29.5 11
t-41.5 5q-35 0 -57.5 -26.5t-22.5 -64.5v-37h177v12q0 59 18.5 106.5t54 80.5t86.5 50.5t116 17.5q53 0 104.5 -16t86.5 -44v-502q0 -32 17 -49.5t40 -22.5z" />
    <glyph glyph-name="lessequal" horiz-adv-x="350" 
d="M213 187l-186 187l186 186l83 -83l-103 -104l103 -103zM33 0v112h270v-112h-270z" />
    <glyph glyph-name="greaterequal" horiz-adv-x="350" 
d="M138 187l-83 83l103 103l-103 104l83 83l186 -186zM47 0v112h271v-112h-271z" />
    <glyph glyph-name="yen" unicode="&#xa5;" horiz-adv-x="617" 
d="M466 415h63v-81h-117l-32 -48v-14h149v-81h-149v-191h-144v191h-150v81h150v9l-34 53h-116v81h62l-150 223h163l105 -154q11 -16 23.5 -36.5t22.5 -39.5h2l24 40t24 36l105 154h150z" />
    <glyph glyph-name="mu" unicode="&#xb5;" horiz-adv-x="550" 
d="M39 0v453h472v-453h-472zM482 384h-384l241 -170q-44 -17 -67.5 -46.5t-23.5 -55.5q0 -32 14.5 -51t37.5 -32h182v355zM257 29q-25 11 -38.5 27.5t-21.5 33.5l-129 271v-332h189v0z" />
    <glyph glyph-name="partialdiff" horiz-adv-x="550" 
d="M39 0v453h472v-453h-472zM482 384h-384l241 -170q-44 -17 -67.5 -46.5t-23.5 -55.5q0 -32 14.5 -51t37.5 -32h182v355zM257 29q-25 11 -38.5 27.5t-21.5 33.5l-129 271v-332h189v0z" />
    <glyph glyph-name="summation" horiz-adv-x="550" 
d="M39 0v453h472v-453h-472zM482 384h-384l241 -170q-44 -17 -67.5 -46.5t-23.5 -55.5q0 -32 14.5 -51t37.5 -32h182v355zM257 29q-25 11 -38.5 27.5t-21.5 33.5l-129 271v-332h189v0z" />
    <glyph glyph-name="product" horiz-adv-x="470" 
d="M440 450q0 -44 -16 -81t-43.5 -64t-65 -42.5t-80.5 -15.5q-44 0 -81 15.5t-65 42.5t-43.5 64t-15.5 81t15.5 81.5t43.5 64.5t65 42t81 15q43 0 80.5 -15t65 -42t43.5 -64.5t16 -81.5zM392 450q0 35 -12 64t-33 50t-50 33t-62 12q-34 0 -63 -12t-50 -33t-33 -50t-12 -64
t12 -64t33 -50t50 -32.5t63 -11.5q33 0 62 12t50 33t33 50t12 63zM332 493q0 -36 -24.5 -55t-56.5 -19h-23v-87h-55v237h76q15 0 30 -5t26.5 -15t19 -24t7.5 -32zM275 493q0 14 -8.5 21.5t-22.5 7.5h-16v-57h16q14 0 22.5 7t8.5 21z" />
    <glyph glyph-name="pi" horiz-adv-x="550" 
d="M39 0v453h472v-453h-472zM482 384h-384l241 -170q-44 -17 -67.5 -46.5t-23.5 -55.5q0 -32 14.5 -51t37.5 -32h182v355zM257 29q-25 11 -38.5 27.5t-21.5 33.5l-129 271v-332h189v0z" />
    <glyph glyph-name="integral" horiz-adv-x="550" 
d="M39 0v453h472v-453h-472zM482 384h-384l241 -170q-44 -17 -67.5 -46.5t-23.5 -55.5q0 -32 14.5 -51t37.5 -32h182v355zM257 29q-25 11 -38.5 27.5t-21.5 33.5l-129 271v-332h189v0z" />
    <glyph glyph-name="ordfeminine" unicode="&#xaa;" horiz-adv-x="399" 
d="M343 270q-56 3 -80 37q-18 -18 -44.5 -27.5t-55.5 -9.5q-28 0 -52 8t-42 24t-28 38.5t-10 51.5q0 46 33.5 78t87.5 37l71 6v11q0 15 -12.5 24.5t-41.5 9.5q-31 0 -60 -7t-47 -18l-8 94q20 11 54 18.5t68 7.5q77 0 121.5 -38.5t44.5 -109.5v-97q0 -46 44 -52zM266 144
q0 -8 -7.5 -19t-18 -21.5t-21.5 -18t-19 -7.5t-19 7.5t-21.5 18t-18 21.5t-7.5 19t7.5 19.5t18 22t21.5 18t19 7.5t19 -7.5t21.5 -18t18 -22t7.5 -19.5zM227 437l-48 -4q-21 -3 -31 -16.5t-10 -29.5q0 -14 9.5 -24t25.5 -10q20 0 37 14.5t17 37.5v32z" />
    <glyph glyph-name="ordmasculine" unicode="&#xba;" horiz-adv-x="455" 
d="M425 462q0 -43 -15.5 -78t-42 -60.5t-62.5 -39.5t-77 -14t-77 14t-62.5 39.5t-42 60.5t-15.5 78q0 42 15.5 77t42 60.5t62.5 39.5t77 14t77 -14t62.5 -39.5t42 -60.5t15.5 -77zM294 144q0 -8 -7.5 -19t-18 -21.5t-22 -18t-19.5 -7.5t-18.5 7.5t-21 18t-17.5 21.5t-7 19
t7 19.5t17.5 22t21 18t18.5 7.5t19.5 -7.5t22 -18t18 -22t7.5 -19.5zM302 462q0 36 -21.5 59.5t-52.5 23.5q-30 0 -52 -23.5t-22 -59.5q0 -37 22 -61t52 -24q31 0 52.5 24t21.5 61z" />
    <glyph glyph-name="Omega" horiz-adv-x="550" 
d="M39 0v453h472v-453h-472zM482 384h-384l241 -170q-44 -17 -67.5 -46.5t-23.5 -55.5q0 -32 14.5 -51t37.5 -32h182v355zM257 29q-25 11 -38.5 27.5t-21.5 33.5l-129 271v-332h189v0z" />
    <glyph glyph-name="ae" unicode="&#xe6;" horiz-adv-x="745" 
d="M715 287q0 -11 -1 -23t-3 -22l-59 -58h-226q4 -15 14 -30t26.5 -27t40 -19.5t54.5 -7.5q38 0 69 8t60 25l-13 -121q-24 -11 -57 -18.5t-78 -7.5q-55 0 -103 16.5t-84 48.5q-30 -35 -72 -50t-87 -15q-35 0 -65.5 10t-53 29t-35.5 46t-13 62q0 64 43 101.5t112 44.5l89 9
v18q0 21 -16.5 34.5t-54.5 13.5q-39 0 -75 -9t-58 -22l-11 112q26 14 68 23t84 9q48 0 87 -13.5t65 -39.5q31 26 70 39.5t81 13.5q47 0 84.5 -15t63.5 -40t40 -57.5t14 -67.5zM582 288q0 27 -18.5 47.5t-50.5 20.5q-33 0 -58.5 -21.5t-33.5 -56.5h160q1 3 1 10zM277 194
l-60 -5q-32 -3 -46 -19t-14 -39q0 -18 13.5 -30t34.5 -12q27 0 49.5 19t22.5 48v38z" />
    <glyph glyph-name="oslash" unicode="&#xf8;" horiz-adv-x="550" 
d="M523 226q0 -53 -19.5 -97t-52.5 -76t-78 -49.5t-96 -17.5q-35 0 -67.5 8.5t-60.5 24.5l-41 -51l-49 41l39 48q-32 32 -50 75t-18 94q0 53 19.5 97.5t53 76.5t78.5 49.5t96 17.5q70 0 126 -32l40 50l49 -41l-38 -47q32 -32 50.5 -75.5t18.5 -95.5zM397 226q0 21 -5.5 39.5
t-15.5 34.5l-153 -190q26 -13 54 -13q24 0 45.5 9.5t38 27t26.5 41t10 51.5zM329 343q-23 13 -52 13q-24 0 -46 -9.5t-38.5 -27t-26 -41.5t-9.5 -52q0 -39 19 -71l153 188v0z" />
    <glyph glyph-name="questiondown" unicode="&#xbf;" horiz-adv-x="406" 
d="M307 570q0 -10 -9 -24t-22 -27t-27.5 -22t-24.5 -9q-11 0 -25 9t-27.5 22t-22.5 27t-9 24t9 24.5t22.5 27.5t27.5 22.5t25 9.5q10 0 24.5 -9.5t27.5 -22.5t22 -27.5t9 -24.5zM384 -12q-26 -21 -63 -33.5t-79 -12.5q-48 0 -86 13.5t-65 38t-41.5 59t-14.5 75.5
q0 50 22.5 91.5t69.5 92.5q23 26 32.5 50.5t9.5 47.5v21t-2 16l120 -25q3 -11 5 -23t2 -26q0 -39 -15 -75t-50 -76q-21 -24 -33.5 -45t-12.5 -49q0 -23 18 -42t52 -19q35 0 64.5 14t54.5 34l12 -127v0z" />
    <glyph glyph-name="exclamdown" unicode="&#xa1;" horiz-adv-x="268" 
d="M215 571q0 -10 -9 -24t-22 -27t-27.5 -22t-24.5 -9t-24.5 9t-27.5 22t-22 27t-9 24t9 24t22 27t27.5 22t24.5 9t24.5 -9t27.5 -22t22 -27t9 -24zM57 -43l18 490l119 -25l17 -465h-154z" />
    <glyph glyph-name="logicalnot" unicode="&#xac;" horiz-adv-x="535" 
d="M365 116v104h-332v112h449v-216h-117z" />
    <glyph glyph-name="radical" horiz-adv-x="611" 
d="M502 589l-228 -593h-110l-82 213h-69l17 126h140l34 -97l7.5 -23.5t6.5 -25.5h2q11 39 27.5 87l31.5 88l133 348h186v-123h-96z" />
    <glyph glyph-name="florin" unicode="&#x192;" horiz-adv-x="446" 
d="M412 530q-10 3 -23.5 4.5t-34.5 1.5q-32 0 -54.5 -19t-28.5 -53l-2 -11h112l-19 -81h-108l-70 -399q-8 -45 -27 -81.5t-46 -63.5t-60.5 -43.5t-69.5 -22.5l-60 97q46 11 78 40.5t43 86.5l68 386h-70l15 81h69l1 6q17 97 76.5 145.5t155.5 48.5q22 0 43.5 -2t35.5 -6z" />
    <glyph glyph-name="approxequal" horiz-adv-x="452" 
d="M421 351q-21 -23 -51.5 -37.5t-65.5 -14.5q-27 0 -46.5 5t-35.5 13l-39 15.5t-41 7.5q-29 0 -51.5 -12t-41.5 -32l-18 103q21 23 51.5 37.5t65.5 14.5q27 0 46.5 -5t36.5 -12q20 -8 37.5 -16t41.5 -8q29 0 52 12.5t42 32.5l17 -104v0zM421 154q-21 -23 -51.5 -37.5
t-65.5 -14.5q-27 0 -46.5 5t-35.5 13l-39 15.5t-41 7.5q-29 0 -51.5 -12t-41.5 -32l-18 103q21 23 51.5 37.5t65.5 14.5q27 0 46.5 -5t36.5 -12q20 -8 37.5 -16t41.5 -8q29 0 52 12.5t42 32.5l17 -104v0z" />
    <glyph glyph-name="Delta" horiz-adv-x="550" 
d="M39 0v453h472v-453h-472zM482 384h-384l241 -170q-44 -17 -67.5 -46.5t-23.5 -55.5q0 -32 14.5 -51t37.5 -32h182v355zM257 29q-25 11 -38.5 27.5t-21.5 33.5l-129 271v-332h189v0z" />
    <glyph glyph-name="guillemotleft" unicode="&#xab;" horiz-adv-x="492" 
d="M398 92q-33 54 -77 101.5t-98 83.5q54 37 98 84t77 101l73 -73q-15 -31 -37 -60t-45 -52q23 -23 45 -52t37 -60zM166 92q-33 54 -76.5 101.5t-97.5 83.5q54 37 97.5 84t76.5 101l73 -73q-15 -31 -37.5 -60t-45.5 -52q23 -23 45.5 -52t37.5 -60z" />
    <glyph glyph-name="guillemotright" unicode="&#xbb;" horiz-adv-x="492" 
d="M500 277q-54 -36 -97.5 -83.5t-76.5 -101.5l-73 73q15 31 37 60t45 52q-23 23 -45 52t-37 60l73 73q33 -54 76.5 -101t97.5 -84zM269 277q-54 -36 -98 -83.5t-77 -101.5l-73 73q15 31 37 60t46 52q-24 23 -46 52t-37 60l73 73q33 -54 77 -101t98 -84z" />
    <glyph glyph-name="ellipsis" unicode="&#x2026;" horiz-adv-x="630" 
d="M603 68q0 -10 -9 -24t-22 -27t-27.5 -22t-24.5 -9t-24.5 9t-27.5 22t-22 27t-9 24t9 24t22 27t27.5 22t24.5 9t24.5 -9t27.5 -22t22 -27t9 -24zM398 68q0 -10 -9 -24t-22 -27t-27.5 -22t-24.5 -9q-11 0 -25 9t-27 22t-22 27t-9 24t9 24t22 27t27 22t25 9q10 0 24.5 -9
t27.5 -22t22 -27t9 -24zM193 68q0 -10 -9 -24t-22 -27t-27.5 -22t-24.5 -9t-24.5 9t-27.5 22t-22 27t-9 24t9 24t22 27t27.5 22t24.5 9t24.5 -9t27.5 -22t22 -27t9 -24z" />
    <glyph glyph-name="nonbreakingspace" horiz-adv-x="113" 
 />
    <glyph glyph-name="Agrave" unicode="&#xc0;" horiz-adv-x="629" 
d="M465 0l-50 133h-210l-49 -133h-146l251 643h107l251 -643h-154zM331 378q-5 14 -10 31l-10 34h-2q-4 -17 -9.5 -34t-10.5 -31l-46 -128h134zM340 700q-26 7 -49.5 14t-45.5 16t-43.5 21t-45.5 28l25 105q23 -22 51 -41t57.5 -34t59 -26.5t56.5 -18.5z" />
    <glyph glyph-name="Atilde" unicode="&#xc3;" horiz-adv-x="629" 
d="M465 0l-50 133h-210l-49 -133h-146l251 643h107l251 -643h-154zM331 378q-5 14 -10 31l-10 34h-2q-4 -17 -9.5 -34t-10.5 -31l-46 -128h134zM455 755q-39 -26 -74 -38.5t-82 -16.5l-12 68q-32 -5 -66.5 -17.5t-66.5 -32.5l25 99q39 23 74 36.5t82 17.5l11 -69
q33 5 67 18.5t66 32.5z" />
    <glyph glyph-name="Otilde" unicode="&#xd5;" horiz-adv-x="757" 
d="M722 320q0 -77 -29 -139t-77 -105.5t-110 -67t-128 -23.5t-128 23.5t-109.5 67t-76.5 105.5t-29 139q0 76 29 138t76.5 105t109.5 66.5t128 23.5t128 -23.5t110 -66.5t77 -105t29 -138zM565 320q0 45 -15.5 81t-42 62t-60 40t-69.5 14t-69.5 -14t-59.5 -40t-41.5 -62
t-15.5 -81t15.5 -81.5t41.5 -62.5t59.5 -40t69.5 -14t69.5 14t60 40t42 62.5t15.5 81.5zM508 755q-39 -26 -74 -38.5t-82 -16.5l-12 68q-32 -5 -66.5 -17.5t-66.5 -32.5l25 99q39 23 74 36.5t82 17.5l11 -69q33 5 67 18.5t66 32.5z" />
    <glyph glyph-name="OE" unicode="&#x152;" horiz-adv-x="945" 
d="M547 0l-1 34q-35 -24 -79 -36t-89 -12q-66 0 -128 23t-109.5 66.5t-76.5 105.5t-29 139t29 138.5t76.5 105t109.5 66.5t128 23q45 0 89 -12.5t79 -35.5l1 33h350v-127h-218v-127h178v-129h-178v-128h246v-127h-378zM533 452q-27 28 -67.5 44.5t-85.5 16.5q-37 0 -71 -14
t-59.5 -39t-41 -61t-15.5 -79q0 -44 15.5 -79.5t41 -61t59.5 -39.5t71 -14q44 0 85 16.5t68 44.5v265z" />
    <glyph glyph-name="oe" unicode="&#x153;" horiz-adv-x="844" 
d="M815 287q0 -23 -5 -45l-59 -58h-225q4 -15 13.5 -30t26 -27t40 -19.5t54.5 -7.5q39 0 69.5 8t59.5 25l-13 -121q-23 -11 -56 -19t-79 -8q-57 0 -106 18t-84 52q-32 -33 -77 -51t-97 -18q-51 0 -96.5 17.5t-79 49.5t-53 76t-19.5 98q0 53 19.5 97.5t53 76t79 49t96.5 17.5
q50 0 94.5 -17t76.5 -49q32 32 74.5 49t89.5 17t84.5 -15t64 -40t40.5 -57.5t14 -67.5zM682 288q0 27 -19 47.5t-51 20.5q-33 0 -58 -21.5t-33 -56.5h160q0 2 0.5 4.5t0.5 5.5zM382 226q0 25 -8.5 46.5t-23 37.5t-33.5 24.5t-40 8.5t-40.5 -8.5t-33.5 -24.5t-22.5 -37.5
t-8.5 -46.5t8.5 -46t22.5 -36.5t33.5 -24t40.5 -8.5t40 8.5t33.5 24t23 36.5t8.5 46z" />
    <glyph glyph-name="endash" unicode="&#x2013;" horiz-adv-x="590" 
d="M33 220v112h524v-112h-524z" />
    <glyph glyph-name="emdash" unicode="&#x2014;" horiz-adv-x="852" 
d="M33 220v112h787v-112h-787z" />
    <glyph glyph-name="quotedblleft" unicode="&#x201c;" horiz-adv-x="425" 
d="M408 708q-29 -33 -49 -71t-26 -69q9 -2 20 -10t21.5 -18.5t17.5 -22t7 -19.5q0 -11 -9.5 -25.5t-22.5 -27t-27.5 -21t-23.5 -8.5t-23 8.5t-27.5 21t-23 26.5t-9.5 26q0 21 11 50t29 59.5t41 59.5t46 50l48 -9v0zM202 708q-29 -33 -49 -71t-25 -70q9 -2 20 -9.5t21 -18
t17 -22t7 -19.5q0 -11 -9.5 -25.5t-22.5 -27t-27 -21t-24 -8.5q-9 0 -22.5 8.5t-27 21t-23 26.5t-9.5 26q0 21 11 50t29 59.5t40.5 59t45.5 49.5l48 -8v0z" />
    <glyph glyph-name="quotedblright" unicode="&#x201d;" horiz-adv-x="426" 
d="M398 639q0 -21 -11.5 -49.5t-29.5 -59.5t-40.5 -60t-45.5 -50l-48 9q29 33 49 71t26 70q-9 1 -20.5 9.5t-21.5 19t-17 21.5t-7 19q0 11 9.5 25t22.5 26.5t27 21t24 8.5q9 0 23 -8.5t27.5 -20.5t23 -26t9.5 -26zM193 639q0 -21 -11.5 -50t-29.5 -59.5t-41 -59.5t-46 -50
l-47 8q29 33 48.5 71.5t25.5 70.5q-9 1 -20 9t-21 18.5t-17 22t-7 19.5q0 11 9.5 25t22.5 26.5t27 21t24 8.5q8 0 22 -8.5t27.5 -20.5t23.5 -26t10 -26z" />
    <glyph glyph-name="quoteleft" unicode="&#x2018;" horiz-adv-x="220" 
d="M202 708q-29 -33 -49 -71t-25 -70q9 -2 20 -9.5t21 -18t17 -22t7 -19.5q0 -11 -9.5 -25.5t-22.5 -27t-27 -21t-24 -8.5q-9 0 -22.5 8.5t-27 21t-23 26.5t-9.5 26q0 21 11 50t29 59.5t40.5 59t45.5 49.5l48 -8v0z" />
    <glyph glyph-name="quoteright" unicode="&#x2019;" horiz-adv-x="220" 
d="M193 639q0 -21 -11.5 -50t-29.5 -59.5t-41 -59.5t-46 -50l-47 8q29 33 48.5 71.5t25.5 70.5q-9 1 -20 9t-21 18.5t-17 22t-7 19.5q0 11 9.5 25t22.5 26.5t27 21t24 8.5q9 0 23 -8.5t27.5 -20.5t23 -26t9.5 -26z" />
    <glyph glyph-name="divide" unicode="&#xf7;" horiz-adv-x="452" 
d="M293 437q0 -8 -7.5 -20t-18 -22.5t-22 -18t-19.5 -7.5t-20 7.5t-22.5 18t-18 22.5t-7.5 20t7.5 20t18 22.5t22.5 18t20 7.5t19.5 -7.5t22 -18t18 -22.5t7.5 -20zM33 220v112h386v-112h-386zM293 115q0 -8 -7.5 -20t-18 -22.5t-22 -18t-19.5 -7.5t-20 7.5t-22.5 18
t-18 22.5t-7.5 20t7.5 20t18 22.5t22.5 18t20 7.5t19.5 -7.5t22 -18t18 -22.5t7.5 -20z" />
    <glyph glyph-name="lozenge" horiz-adv-x="589" 
d="M291 55l-222 222l222 222l223 -222zM291 384l-107 -107l107 -108l108 108z" />
    <glyph glyph-name="ydieresis" unicode="&#xff;" horiz-adv-x="505" 
d="M331 39q-46 -120 -104 -189.5t-140 -89.5l-60 95q26 9 48 21.5t40.5 32t35.5 47.5t33 67l-169 430h145l67 -177q8 -20 14.5 -41.5l13.5 -46.5h2q6 24 12.5 45.5t14.5 41.5l68 178h138zM388 570q0 -6 -6 -15.5t-15 -18.5t-19 -15.5t-17 -6.5t-16.5 6.5t-18.5 15.5
t-15 18.5t-6 15.5q0 7 6 16.5t15 18.5t18.5 15.5t16.5 6.5t17 -6.5t19 -15.5t15 -18.5t6 -16.5zM235 570q0 -6 -6 -15.5t-15 -18.5t-18.5 -15.5t-16.5 -6.5t-16.5 6.5t-18.5 15.5t-15 18.5t-6 15.5q0 7 6 16.5t15 18.5t18.5 15.5t16.5 6.5t16.5 -6.5t18.5 -15.5t15 -18.5
t6 -16.5z" />
    <glyph glyph-name="Ydieresis" unicode="&#x178;" horiz-adv-x="623" 
d="M386 285v-285h-150v282l-238 356h165l105 -154l23.5 -37t22.5 -39h2l24 39.5l24 36.5l105 154h154zM467 763q0 -8 -7.5 -19t-18 -21.5t-22 -18t-19.5 -7.5t-19 7.5t-21.5 18t-18 21.5t-7.5 19t7.5 19.5t18 22t21.5 18t19 7.5t19.5 -7.5t22 -18t18 -22t7.5 -19.5zM287 763
q0 -8 -7.5 -19t-18 -21.5t-21.5 -18t-19 -7.5t-19 7.5t-21.5 18t-18 21.5t-7.5 19t7.5 19.5t18 22t21.5 18t19 7.5t19 -7.5t21.5 -18t18 -22t7.5 -19.5z" />
    <glyph glyph-name="fraction" horiz-adv-x="605" 
d="M80 -19l-61 50l506 626l61 -49z" />
    <glyph glyph-name="currency" unicode="&#xa4;" horiz-adv-x="488" 
d="M387 67l-62 61q-18 -10 -38.5 -15.5t-42.5 -5.5q-23 0 -44 6t-39 17l-63 -62l-64 65l63 61q-23 37 -23 83q0 22 5.5 42.5t15.5 37.5l-9 9l-10.5 10.5t-10.5 11.5l-31 32l64 64l61 -61q38 24 85 24q46 0 83 -23l61 61l63 -64l-60 -61q23 -37 23 -83q0 -47 -24 -85l61 -61z
M333 277q0 36 -26 61.5t-63 25.5t-62 -25.5t-25 -61.5q0 -37 25 -62.5t62 -25.5t63 25.5t26 62.5z" />
    <glyph glyph-name="guilsinglleft" unicode="&#x2039;" horiz-adv-x="261" 
d="M167 92q-33 54 -77 101.5t-98 83.5q54 37 98 84t77 101l73 -73q-15 -31 -37.5 -60t-45.5 -52q23 -23 45.5 -52t37.5 -60z" />
    <glyph glyph-name="guilsinglright" unicode="&#x203a;" horiz-adv-x="261" 
d="M268 277q-54 -36 -98 -83.5t-76 -101.5l-73 73q15 31 37 60t46 52q-24 23 -46 52t-37 60l73 73q66 -110 174 -185z" />
    <glyph glyph-name="fi" horiz-adv-x="563" 
d="M359 0v333h-134v-333h-144v333h-70v120h70v27q0 56 16.5 100.5t47.5 75.5t75 47.5t99 16.5q34 0 61.5 -6.5t45.5 -16.5l-11 -122q-16 9 -38 15.5t-51 6.5q-51 0 -76 -29t-25 -74v-41h281v-453h-147z" />
    <glyph glyph-name="fl" horiz-adv-x="626" 
d="M547 -18q-26 1 -52 12t-47 31.5t-34 50.5t-13 70v440q-23 13 -70 13q-48 0 -77 -32.5t-29 -85.5v-28h90l-10 -120h-80v-333h-144v333h-70v120h70v12q0 59 18.5 106.5t53.5 80.5t86 50.5t116 17.5q53 0 104.5 -16t86.5 -44v-502q0 -32 17 -49.5t40 -22.5z" />
    <glyph glyph-name="daggerdbl" unicode="&#x2021;" horiz-adv-x="387" 
d="M243 -123l-4 -108h-91l-4 108l-135 -18v137l131 -19l-12 366l-119 -18v137l115 -18l-4 113h146l-3 -113l114 18v-137l-119 18l-11 -366l130 19v-137z" />
    <glyph glyph-name="periodcentered" unicode="&#xb7;" horiz-adv-x="220" 
d="M193 271q0 -10 -9 -24.5t-22 -27.5t-27.5 -22t-24.5 -9t-24.5 9t-27.5 22t-22 27.5t-9 24.5t9 24t22 27t27.5 22t24.5 9t24.5 -9t27.5 -22t22 -27t9 -24z" />
    <glyph glyph-name="periodcentered" unicode="&#x2219;" horiz-adv-x="220" 
d="M193 271q0 -10 -9 -24.5t-22 -27.5t-27.5 -22t-24.5 -9t-24.5 9t-27.5 22t-22 27.5t-9 24.5t9 24t22 27t27.5 22t24.5 9t24.5 -9t27.5 -22t22 -27t9 -24z" />
    <glyph glyph-name="quotesinglbase" unicode="&#x201a;" horiz-adv-x="220" 
d="M193 69q0 -21 -11.5 -50t-29.5 -59.5t-41 -59.5t-46 -50l-47 8q29 33 48.5 71.5t25.5 70.5q-9 1 -20 9t-21 18.5t-17 22t-7 19.5q0 11 9.5 25t22.5 26.5t27 21t24 8.5q9 0 23 -8.5t27.5 -20.5t23 -26t9.5 -26z" />
    <glyph glyph-name="quotedblbase" unicode="&#x201e;" horiz-adv-x="426" 
d="M395 69q0 -21 -11.5 -50t-29.5 -59.5t-40.5 -59.5t-45.5 -50l-48 9q29 33 49 71t26 70q-9 1 -20.5 9t-21.5 18.5t-17 22t-7 19.5q0 11 9.5 25t22.5 26.5t27 21t24 8.5q9 0 23 -8.5t27.5 -20.5t23 -26t9.5 -26zM190 69q0 -21 -11.5 -50t-29.5 -59.5t-41 -59.5t-46 -50
l-47 8q28 33 48 71.5t26 70.5q-9 1 -20 9t-21 18.5t-17 22t-7 19.5q0 11 9.5 25t22.5 26.5t27 21t24 8.5q8 0 22 -8.5t27.5 -20.5t23.5 -26t10 -26z" />
    <glyph glyph-name="perthousand" unicode="&#x2030;" horiz-adv-x="1071" 
d="M1043 135q0 -33 -12 -61t-32.5 -47.5t-48 -30.5t-59.5 -11t-59.5 11t-47.5 30.5t-32 47.5t-12 61t12 60t32 46.5t47.5 30.5t59.5 11t59.5 -11t48 -30.5t32.5 -46.5t12 -60zM331 505q0 -33 -12 -61t-32.5 -47.5t-48 -30.5t-59.5 -11t-59 11t-47.5 30.5t-32 47.5t-11.5 61
t11.5 60t32 46.5t47.5 30.5t59 11t59.5 -11t48 -30.5t32.5 -46.5t12 -60zM134 -19l-62 50l507 626l60 -49zM684 135q0 -33 -12 -61t-32 -47.5t-48 -30.5t-59 -11q-32 0 -59.5 11t-48 30.5t-32.5 47.5t-12 61t12 60t32.5 46.5t48 30.5t59.5 11q31 0 59 -11t48 -30.5t32 -46.5
t12 -60zM945 135q0 26 -16 42t-38 16t-37.5 -16t-15.5 -42t15.5 -43t37.5 -17t38 17t16 43zM233 505q0 26 -16 42.5t-38 16.5t-37.5 -16.5t-15.5 -42.5t15.5 -43t37.5 -17t38 17t16 43zM586 135q0 26 -16 42t-37 16q-22 0 -38 -16t-16 -42t16 -43t38 -17q21 0 37 17t16 43z
" />
    <glyph glyph-name="Acircumflex" unicode="&#xc2;" horiz-adv-x="629" 
d="M465 0l-50 133h-210l-49 -133h-146l251 643h107l251 -643h-154zM331 378q-5 14 -10 31l-10 34h-2q-4 -17 -9.5 -34t-10.5 -31l-46 -128h134zM400 700q-24 11 -45 24.5t-42 35.5q-21 -22 -42 -35.5t-45 -24.5l-62 61q40 18 79.5 51.5t69.5 78.5q30 -45 69.5 -78.5
t79.5 -51.5z" />
    <glyph glyph-name="Ecircumflex" unicode="&#xca;" horiz-adv-x="475" 
d="M55 0v638h372v-127h-217v-127h177v-129h-177v-128h245v-127h-400zM340 700q-24 11 -45 24.5t-42 35.5q-21 -22 -42 -35.5t-45 -24.5l-62 61q40 18 79.5 51.5t69.5 78.5q30 -45 69.5 -78.5t79.5 -51.5z" />
    <glyph glyph-name="Aacute" unicode="&#xc1;" horiz-adv-x="629" 
d="M465 0l-50 133h-210l-49 -133h-146l251 643h107l251 -643h-154zM331 378q-5 14 -10 31l-10 34h-2q-4 -17 -9.5 -34t-10.5 -31l-46 -128h134zM471 779q-47 -32 -89 -49t-94 -30l-65 64q27 7 56.5 18.5t59 26.5t57.5 34t51 41l24 -105v0z" />
    <glyph glyph-name="Edieresis" unicode="&#xcb;" horiz-adv-x="475" 
d="M55 0v638h372v-127h-217v-127h177v-129h-177v-128h245v-127h-400zM406 766q0 -8 -7.5 -19t-18 -21.5t-22 -18t-19.5 -7.5t-19 7.5t-21.5 18t-18 21.5t-7.5 19t7.5 19.5t18 22t21.5 18t19 7.5t19.5 -7.5t22 -18t18 -22t7.5 -19.5zM226 766q0 -8 -7.5 -19t-18 -21.5
t-21.5 -18t-19 -7.5t-19 7.5t-21.5 18t-18 21.5t-7.5 19t7.5 19.5t18 22t21.5 18t19 7.5t19 -7.5t21.5 -18t18 -22t7.5 -19.5z" />
    <glyph glyph-name="Egrave" unicode="&#xc8;" horiz-adv-x="475" 
d="M55 0v638h372v-127h-217v-127h177v-129h-177v-128h245v-127h-400zM274 700q-26 7 -49.5 14t-45.5 16t-43.5 21t-45.5 28l25 105q23 -22 51 -41t57.5 -34t59 -26.5t56.5 -18.5z" />
    <glyph glyph-name="Iacute" unicode="&#xcd;" horiz-adv-x="285" 
d="M65 0v638h155v-638h-155zM285 779q-47 -32 -89 -49t-94 -30l-65 64q27 7 56.5 18.5t59 26.5t57.5 34t51 41l24 -105v0z" />
    <glyph glyph-name="Icircumflex" unicode="&#xce;" horiz-adv-x="285" 
d="M65 0v638h155v-638h-155zM230 700q-24 11 -45 24.5t-42 35.5q-21 -22 -42 -35.5t-45 -24.5l-62 61q40 18 79.5 51.5t69.5 78.5q30 -45 69.5 -78.5t79.5 -51.5z" />
    <glyph glyph-name="Idieresis" unicode="&#xcf;" horiz-adv-x="285" 
d="M65 0v638h155v-638h-155zM300 766q0 -8 -7.5 -19t-18 -21.5t-22 -18t-19.5 -7.5t-19 7.5t-21.5 18t-18 21.5t-7.5 19t7.5 19.5t18 22t21.5 18t19 7.5t19.5 -7.5t22 -18t18 -22t7.5 -19.5zM120 766q0 -8 -7.5 -19t-18 -21.5t-21.5 -18t-19 -7.5t-19 7.5t-21.5 18t-18 21.5
t-7.5 19t7.5 19.5t18 22t21.5 18t19 7.5t19 -7.5t21.5 -18t18 -22t7.5 -19.5z" />
    <glyph glyph-name="Igrave" unicode="&#xcc;" horiz-adv-x="285" 
d="M65 0v638h155v-638h-155zM185 700q-26 7 -49.5 14t-45.5 16t-43.5 21t-45.5 28l25 105q23 -22 51 -41t57.5 -34t59 -26.5t56.5 -18.5z" />
    <glyph glyph-name="Oacute" unicode="&#xd3;" horiz-adv-x="757" 
d="M722 320q0 -77 -29 -139t-77 -105.5t-110 -67t-128 -23.5t-128 23.5t-109.5 67t-76.5 105.5t-29 139q0 76 29 138t76.5 105t109.5 66.5t128 23.5t128 -23.5t110 -66.5t77 -105t29 -138zM565 320q0 45 -15.5 81t-42 62t-60 40t-69.5 14t-69.5 -14t-59.5 -40t-41.5 -62
t-15.5 -81t15.5 -81.5t41.5 -62.5t59.5 -40t69.5 -14t69.5 14t60 40t42 62.5t15.5 81.5zM531 779q-47 -32 -89 -49t-94 -30l-65 64q27 7 56.5 18.5t59 26.5t57.5 34t51 41l24 -105v0z" />
    <glyph glyph-name="Ocircumflex" unicode="&#xd4;" horiz-adv-x="757" 
d="M722 320q0 -77 -29 -139t-77 -105.5t-110 -67t-128 -23.5t-128 23.5t-109.5 67t-76.5 105.5t-29 139q0 76 29 138t76.5 105t109.5 66.5t128 23.5t128 -23.5t110 -66.5t77 -105t29 -138zM565 320q0 45 -15.5 81t-42 62t-60 40t-69.5 14t-69.5 -14t-59.5 -40t-41.5 -62
t-15.5 -81t15.5 -81.5t41.5 -62.5t59.5 -40t69.5 -14t69.5 14t60 40t42 62.5t15.5 81.5zM467 700q-24 11 -45 24.5t-42 35.5q-21 -22 -42 -35.5t-45 -24.5l-62 61q40 18 79.5 51.5t69.5 78.5q30 -45 69.5 -78.5t79.5 -51.5z" />
    <glyph glyph-name="apple" horiz-adv-x="550" 
d="M39 0v453h472v-453h-472zM482 384h-384l241 -170q-44 -17 -67.5 -46.5t-23.5 -55.5q0 -32 14.5 -51t37.5 -32h182v355zM257 29q-25 11 -38.5 27.5t-21.5 33.5l-129 271v-332h189v0z" />
    <glyph glyph-name="Ograve" unicode="&#xd2;" horiz-adv-x="757" 
d="M722 320q0 -77 -29 -139t-77 -105.5t-110 -67t-128 -23.5t-128 23.5t-109.5 67t-76.5 105.5t-29 139q0 76 29 138t76.5 105t109.5 66.5t128 23.5t128 -23.5t110 -66.5t77 -105t29 -138zM565 320q0 45 -15.5 81t-42 62t-60 40t-69.5 14t-69.5 -14t-59.5 -40t-41.5 -62
t-15.5 -81t15.5 -81.5t41.5 -62.5t59.5 -40t69.5 -14t69.5 14t60 40t42 62.5t15.5 81.5zM398 700q-26 7 -49.5 14t-45.5 16t-43.5 21t-45.5 28l25 105q23 -22 51 -41t57.5 -34t59 -26.5t56.5 -18.5z" />
    <glyph glyph-name="Uacute" unicode="&#xda;" horiz-adv-x="663" 
d="M608 218q0 -53 -22 -96t-59.5 -73t-88 -46.5t-107.5 -16.5t-107.5 16.5t-88 46.5t-59 73t-21.5 96v420h155v-406q0 -49 33.5 -79.5t89.5 -30.5t90 30.5t34 79.5v406h151v-420v0zM502 779q-47 -32 -89 -49t-94 -30l-65 64q27 7 56.5 18.5t59 26.5t57.5 34t51 41l24 -105v0
z" />
    <glyph glyph-name="Ucircumflex" unicode="&#xdb;" horiz-adv-x="663" 
d="M608 218q0 -53 -22 -96t-59.5 -73t-88 -46.5t-107.5 -16.5t-107.5 16.5t-88 46.5t-59 73t-21.5 96v420h155v-406q0 -49 33.5 -79.5t89.5 -30.5t90 30.5t34 79.5v406h151v-420v0zM419 700q-24 11 -45 24.5t-42 35.5q-21 -22 -42 -35.5t-45 -24.5l-62 61q40 18 79.5 51.5
t69.5 78.5q30 -45 69.5 -78.5t79.5 -51.5z" />
    <glyph glyph-name="Ugrave" unicode="&#xd9;" horiz-adv-x="663" 
d="M608 218q0 -53 -22 -96t-59.5 -73t-88 -46.5t-107.5 -16.5t-107.5 16.5t-88 46.5t-59 73t-21.5 96v420h155v-406q0 -49 33.5 -79.5t89.5 -30.5t90 30.5t34 79.5v406h151v-420v0zM346 700q-26 7 -49.5 14t-45.5 16t-43.5 21t-45.5 28l25 105q23 -22 51 -41t57.5 -34
t59 -26.5t56.5 -18.5z" />
    <glyph glyph-name="dotlessi" unicode="&#xd;" horiz-adv-x="263" 
d="M58 0v453h148v-453h-148z" />
    <glyph glyph-name="circumflex" unicode="&#x2c6;" 
d="M310 500q-24 11 -45 24.5t-42 35.5q-21 -22 -42 -35.5t-45 -24.5l-62 61q40 18 79.5 51.5t69.5 78.5q30 -45 69.5 -78.5t79.5 -51.5z" />
    <glyph glyph-name="tilde" unicode="&#x2dc;" 
d="M361 555q-39 -26 -74 -38.5t-82 -16.5l-12 68q-32 -5 -66.5 -17.5t-66.5 -32.5l25 99q39 23 74 36.5t82 17.5l11 -69q33 5 67 18.5t66 32.5z" />
    <glyph glyph-name="macron" unicode="&#xaf;" 
d="M123 514v87h209v-87h-209z" />
    <glyph glyph-name="breve" 
d="M364 552q-18 -15 -40 -26q-19 -10 -44.5 -18t-54.5 -8q-30 0 -56 8t-45 18q-22 11 -40 26l57 61q11 -8 25 -13q11 -5 26.5 -8.5t32.5 -3.5t31.5 3.5t25.5 8.5q13 5 25 13l57 -61v0z" />
    <glyph glyph-name="dotaccent" 
d="M295 570q0 -8 -7.5 -20t-18.5 -23t-23 -19t-21 -8t-21 8t-23 19t-19 23t-8 20q0 9 8 21t19 23t23 18.5t21 7.5t21 -7.5t23 -18.5t18.5 -23t7.5 -21z" />
    <glyph glyph-name="ring" 
d="M350 609q0 -26 -10 -48.5t-27 -39t-40 -26.5t-48 -10q-26 0 -49 10t-40 26.5t-27 39t-10 48.5t10 48.5t27 39.5t40 26.5t49 9.5q25 0 48 -9.5t40 -26.5t27 -39.5t10 -48.5zM286 609q0 27 -17.5 44t-43.5 17q-27 0 -44 -17t-17 -44q0 -26 17 -43.5t44 -17.5
q26 0 43.5 17.5t17.5 43.5z" />
    <glyph glyph-name="cedilla" unicode="&#xb8;" 
d="M305 -131q0 -27 -10 -47t-26.5 -33.5t-37 -20t-42.5 -6.5q-26 0 -43.5 5.5t-34.5 16.5l10 65q17 -12 32.5 -16t32.5 -4q18 0 29.5 11t11.5 28q0 18 -12.5 28.5t-32.5 10.5q-8 0 -16 -0.5t-19 -2.5l15 96h50l-3 -27q18 -1 35 -9t30.5 -21.5t22 -32.5t8.5 -41z" />
    <glyph glyph-name="hungarumlaut" unicode="&#xa;" 
d="M418 631q-27 -44 -54.5 -73.5t-62.5 -57.5l-88 19q42 35 80 81t63 91l62 -60v0zM239 631q-27 -45 -54 -73.5t-62 -57.5l-89 19q42 35 80 81t64 91l61 -60v0z" />
    <glyph glyph-name="ogonek" 
d="M318 -221q-25 -17 -72 -17q-48 0 -80 26.5t-32 73.5q0 23 9 44.5t23.5 39.5t33 31.5t37.5 22.5h91q-23 -11 -44 -25.5t-37 -31t-25 -34.5t-9 -37q0 -18 14 -29.5t37 -11.5q38 0 65 17z" />
    <glyph glyph-name="caron" 
d="M374 621q-40 -17 -80 -50.5t-69 -78.5q-30 45 -70 78.5t-80 50.5l63 62q24 -11 45 -25t42 -35q21 22 41.5 35.5t44.5 24.5l63 -62v0z" />
    <glyph glyph-name="Eth" unicode="&#xd0;" horiz-adv-x="668" 
d="M633 319q0 -75 -27.5 -134t-74.5 -100t-109 -63t-131 -22h-215v266h-74v109h74v263h215q69 0 131 -22t109 -63t74.5 -100t27.5 -134zM478 319q0 46 -16.5 81t-44.5 58.5t-65 35t-79 11.5h-48v-130h101l-17 -109h-84v-133h48q42 0 79 11.5t65 35t44.5 58t16.5 81.5z" />
    </font>
</defs>
</svg>
